Jordin Sparks ft. Chris Brown - No Air AI Upscale 1080p HEVC

Discussion in 'UPSCALED' started by eduard55555, Jan 13, 2021 at 12:35 PM.

  1. eduard55555

    eduard55555 Active Member

    Joined:
    Sep 29, 2016
    Messages:
    423
    Likes Received:
    72
    Hidden Content:
    You must reply before you can see the hidden data contained here.
    [​IMG][/url] [​IMG] [​IMG] [​IMG] [​IMG][/IMG]

    General

    Complete name :
    /Users/****/Movies/Jordin Sparks - No Air (feat Chris Brown) HEVC 1080p Upscale CLEAN.mkv
    Format :
    Matroska
    Format version :
    Version 4 / Version 2
    File size :
    713 MiB
    Duration :
    4 min 49 s
    Overall bit rate :
    20.7 Mb/s
    Encoded date :
    UTC 2021-01-13 13:56:33
    Writing application :
    HandBrake 1.3.3 2020061300
    Writing library :
    Lavf58.29.100
    ErrorDetectionType :
    Per level 1
    Video
    ID :
    1
    Format :
    HEVC
    Format/Info :
    High Efficiency Video Coding
    Format profile :
    Main 10@L5.1@Main
    Codec ID :
    V_MPEGH/ISO/HEVC
    Duration :
    4 min 49 s
    Bit rate :
    19.6 Mb/s
    Width :
    1 920 pixels
    Height :
    848 pixels
    Display aspect ratio :
    2.25:1
    Frame rate mode :
    Constant
    Frame rate :
    23.976 (24000/1001) FPS
    Color space :
    YUV
    Chroma subsampling :
    4:2:0
    Bit depth :
    10 bits
    Bits/(Pixel*Frame) :
    0.502
    Stream size :
    677 MiB (95%)
    Writing library :
    x265 3.2.1+1-b5c86a64bbbe:[Mac OS X][clang 11.0.3][64 bit] 10bit
    Encoding settings :
    cpuid=1111039 / frame-threads=3 / wpp / no-pmode / no-pme / no-psnr / no-ssim / log-level=2 / input-csp=1 / input-res=1920x848 / interlace=0 / total-frames=0 / level-idc=51 / high-tier=1 / uhd-bd=0 / ref=5 / no-allow-non-conformance / no-repeat-headers / annexb / no-aud / no-hrd / info / hash=0 / no-temporal-layers / open-gop / min-keyint=24 / keyint=240 / gop-lookahead=0 / bframes=8 / b-adapt=2 / b-pyramid / bframe-bias=0 / rc-lookahead=40 / lookahead-slices=0 / scenecut=40 / radl=0 / no-splice / no-intra-refresh / ctu=64 / min-cu-size=8 / rect / amp / max-tu-size=32 / tu-inter-depth=3 / tu-intra-depth=3 / limit-tu=4 / rdoq-level=2 / dynamic-rd=0.00 / no-ssim-rd / signhide / no-tskip / nr-intra=0 / nr-inter=0 / no-constrained-intra / no-strong-intra-smoothing / max-merge=4 / limit-refs=1 / limit-modes / me=3 / subme=4 / merange=57 / temporal-mvp / no-hme / weightp / weightb / no-analyze-src-pics / deblock=0:0 / no-sao / no-sao-non-deblock / rd=6 / selective-sao=0 / no-early-skip / no-rskip / no-fast-intra / no-tskip-fast / no-cu-lossless / b-intra / no-splitrd-skip / rdpenalty=0 / psy-rd=4.00 / psy-rdoq=10.00 / no-rd-refine / no-lossless / cbqpoffs=0 / crqpoffs=0 / rc=abr / bitrate=20000 / qcomp=0.60 / qpstep=1 / stats-write=0 / stats-read=2 / cplxblur=20.0 / qblur=0.5 / ipratio=1.10 / pbratio=1.00 / aq-mode=0 / aq-strength=0.00 / no-cutree / zone-count=0 / no-strict-cbr / qg-size=64 / rc-grain / qpmax=69 / qpmin=0 / const-vbv / sar=1 / overscan=0 / videoformat=5 / range=0 / colorprim=1 / transfer=1 / colormatrix=1 / chromaloc=0 / display-window=0 / cll=0,0 / min-luma=0 / max-luma=1023 / log2-max-poc-lsb=8 / vui-timing-info / vui-hrd-info / slices=1 / no-opt-qp-pps / no-opt-ref-list-length-pps / no-multi-pass-opt-rps / scenecut-bias=0.05 / no-opt-cu-delta-qp / no-aq-motion / no-hdr / no-hdr-opt / no-dhdr10-opt / no-idr-recovery-sei / analysis-reuse-level=5 / scale-factor=0 / refine-intra=0 / refine-inter=0 / refine-mv=1 / refine-ctu-distortion=0 / no-limit-sao / ctu-info=0 / no-lowpass-dct / refine-analysis-type=0 / copy-pic=1 / max-ausize-factor=1.0 / no-dynamic-refine / no-single-sei / no-hevc-aq / no-svt / no-field / qp-adaptation-range=1.00
    Default :
    Yes
    Forced :
    No
    Color range :
    Limited
    Color primaries :
    BT.709
    Transfer characteristics :
    BT.709
    Matrix coefficients :
    BT.709
    Audio
    ID :
    2
    Format :
    E-AC-3
    Format/Info :
    Enhanced Audio Coding 3
    Format settings, Endianness :
    Big
    Codec ID :
    A_EAC3
    Duration :
    4 min 49 s
    Bit rate mode :
    Constant
    Bit rate :
    640 kb/s
    Channel(s) :
    2 channels
    Channel positions :
    Front: L R
    Sampling rate :
    48.0 kHz
    Frame rate :
    187.500 FPS (256 SPF)
    Compression mode :
    Lossy
    Delay relative to video :
    -5 ms
    Stream size :
    22.1 MiB (3%)
    Title :
    Stereo
    Service kind :
    Complete Main
    Default :
    Yes
    Forced :
    No
     
    Danny Danny, Vinny, eks22 and 4 others like this.
  2. Loading...


  3. antoniojoseguizilini

    antoniojoseguizilini Well-Known Member

    Joined:
    Dec 2, 2016
    Messages:
    2,543
    Likes Received:
    211
  4. TGO

    TGO Well-Known Member Donor

    Joined:
    Sep 28, 2017
    Messages:
    487
    Likes Received:
    287
    Those captures look fantastic
    That's very good, well done @eduard55555
    [​IMG]
     
    Last edited: Jan 13, 2021 at 1:21 PM
  5. muratguren

    muratguren Well-Known Member

    Joined:
    Mar 6, 2016
    Messages:
    2,560
    Likes Received:
    61
  6. eduardosantos

    eduardosantos Active Member

    Joined:
    Apr 18, 2017
    Messages:
    672
    Likes Received:
    64
  7. rafaalone

    rafaalone Member

    Joined:
    Dec 1, 2016
    Messages:
    358
    Likes Received:
    10
  8. kiiwii

    kiiwii Active Member

    Joined:
    Oct 10, 2013
    Messages:
    721
    Likes Received:
    45
    Thank you for sharing. :)
     
  9. Tiago

    Tiago Well-Known Member

    Joined:
    Dec 7, 2013
    Messages:
    3,766
    Likes Received:
    513
  10. Danny Danny

    Danny Danny Member

    Joined:
    Sep 27, 2020
    Messages:
    99
    Likes Received:
    9
  11. Mayiti

    Mayiti Active Member

    Joined:
    Aug 20, 2020
    Messages:
    801
    Likes Received:
    29