DVD Jonas Brothers - Mandy (Vob, TopHitUsa)

Discussion in 'SD' started by markitomg, Mar 14, 2019.

  1. markitomg

    markitomg Well-Known Member

    Joined:
    May 24, 2016
    Messages:
    1,387
    Likes Received:
    628
    [​IMG]

    Code:
    Format                         : MPEG-PS
    File size                      : 141 MiB
    Duration                       : 3mn 31s
    Overall bit rate mode          : Variable
    Overall bit rate               : 5 607 Kbps
    Writing library                : http://vip-files.net
    
    Video
    ID                             : 224 (0xE0)
    Format                         : MPEG Video
    Format version                 : Version 2
    Format profile                 : Main@Main
    Format settings, BVOP          : No
    Format settings, Matrix        : Default
    Format settings, GOP           : Variable
    Duration                       : 3mn 31s
    Bit rate mode                  : Variable
    Bit rate                       : 3 959 Kbps
    Maximum bit rate               : 4 000 Kbps
    Width                          : 720 pixels
    Height                         : 480 pixels
    Display aspect ratio           : 4:3
    Frame rate                     : 29.970 fps
    Standard                       : NTSC
    Color space                    : YUV
    Chroma subsampling             : 4:2:0
    Bit depth                      : 8 bits
    Scan type                      : Interlaced
    Scan order                     : Bottom Field First
    Compression mode               : Lossy
    Bits/(Pixel*Frame)             : 0.382
    Time code of first frame       : 00:00:00;00
    Time code source               : Group of pictures header
    Stream size                    : 99.8 MiB (71%)
    
    Audio
    ID                             : 189 (0xBD)-160 (0xA0)
    Format                         : PCM
    Format settings, Endianness    : Big
    Format settings, Sign          : Signed
    Muxing mode                    : DVD-Video
    Duration                       : 3mn 31s
    Bit rate mode                  : Constant
    Bit rate                       : 1 536 Kbps
    Channel(s)                     : 2 channels
    Sampling rate                  : 48.0 KHz
    Bit depth                      : 16 bits
    Stream size                    : 38.7 MiB (27%)
    Hidden Content:
    You must reply before you can see the hidden data contained here.
     
    xmgt, CharmedDream and dan iel like this.
  2. Loading...


  3. nathanjuniorrf28

    nathanjuniorrf28 ToxicNTN

    Joined:
    Jul 24, 2016
    Messages:
    525
    Likes Received:
    237
    vlw, vc teria os outros clipes, em especifico o luvebug e paranoid??
     
  4. 3veronicas

    3veronicas Well-Known Member

    Joined:
    Aug 26, 2016
    Messages:
    2,511
    Likes Received:
    148
    Thanks!
     
  5. BetaKsi

    BetaKsi Well-Known Member

    Joined:
    Oct 18, 2015
    Messages:
    2,741
    Likes Received:
    669
    Thank you))
     
  6. lhf908

    lhf908 Member Donor

    Joined:
    May 28, 2016
    Messages:
    75
    Likes Received:
    5
    thanks
     
  7. dan iel

    dan iel daniel

    Joined:
    Jan 6, 2019
    Messages:
    220
    Likes Received:
    8
    ukgtktugk
     
  8. CharmedDream

    CharmedDream Active Member

    Joined:
    Feb 19, 2017
    Messages:
    447
    Likes Received:
    164
  9. xmgt

    xmgt Active Member

    Joined:
    May 21, 2016
    Messages:
    422
    Likes Received:
    25
    Thanks!
     
  10. funkymonkeytown

    funkymonkeytown Member

    Joined:
    May 14, 2019
    Messages:
    36
    Likes Received:
    0