DVD John Mayer Feat Taylor Swift - Half Of My Heart (Vob, Promo Only)

Discussion in 'SD' started by markitomg, Dec 27, 2018.

  1. markitomg

    markitomg Well-Known Member

    Joined:
    May 24, 2016
    Messages:
    1,855
    Likes Received:
    1,754
    [​IMG]

    Code:
    Format                         : MPEG-PS
    File size                      : 198 MiB
    Duration                       : 4mn 2s
    Overall bit rate mode          : Variable
    Overall bit rate               : 6 849 Kbps
    Writing library                : http://vip-files.net
    
    Video
    ID                             : 224 (0xE0)
    Format                         : MPEG Video
    Format version                 : Version 2
    Format profile                 : Main@Main
    Format settings, BVOP          : No
    Format settings, Matrix        : Custom
    Format settings, GOP           : M=3, N=16
    Duration                       : 4mn 2s
    Bit rate mode                  : Variable
    Bit rate                       : 5 176 Kbps
    Maximum bit rate               : 8 000 Kbps
    Width                          : 720 pixels
    Height                         : 480 pixels
    Display aspect ratio           : 4:3
    Frame rate                     : 29.970 fps
    Standard                       : NTSC
    Color space                    : YUV
    Chroma subsampling             : 4:2:0
    Bit depth                      : 8 bits
    Scan type                      : Interlaced
    Scan order                     : Top Field First
    Compression mode               : Lossy
    Bits/(Pixel*Frame)             : 0.500
    Time code of first frame       : 00:00:00:00
    Time code source               : Group of pictures header
    Stream size                    : 149 MiB (76%)
    Writing library                : http://vip-files.net
    Color primaries                : BT.601 NTSC
    Transfer characteristics       : BT.601
    Matrix coefficients            : BT.601
    
    Audio
    ID                             : 189 (0xBD)-160 (0xA0)
    Format                         : PCM
    Format settings, Endianness    : Big
    Format settings, Sign          : Signed
    Muxing mode                    : DVD-Video
    Duration                       : 4mn 2s
    Bit rate mode                  : Constant
    Bit rate                       : 1 536 Kbps
    Channel(s)                     : 2 channels
    Sampling rate                  : 48.0 KHz
    Bit depth                      : 16 bits
    Stream size                    : 44.3 MiB (22%)
    Hidden Content:
    You must reply before you can see the hidden data contained here.
     
    badonkadonka likes this.
  2. Loading...


  3. pajpajpaj

    pajpajpaj Well-Known Member

    Joined:
    Feb 11, 2017
    Messages:
    1,836
    Likes Received:
    57
    thank you
     
  4. mastodontosaurio

    mastodontosaurio Well-Known Member

    Joined:
    Sep 29, 2015
    Messages:
    1,576
    Likes Received:
    98
    MUCHAS GRACIAS GRAN TEMASO CLASICO
     
  5. Malitaxd

    Malitaxd Active Member

    Joined:
    Jun 21, 2019
    Messages:
    549
    Likes Received:
    32
    thank so much
     
  6. Swiftyjoezen

    Swiftyjoezen Member

    Joined:
    Feb 6, 2018
    Messages:
    83
    Likes Received:
    9
  7. badonkadonka

    badonkadonka Member

    Joined:
    Nov 23, 2017
    Messages:
    573
    Likes Received:
    21
    thanks
     
  8. KaiKawaii

    KaiKawaii Well-Known Member Uploader

    Joined:
    Jun 1, 2017
    Messages:
    877
    Likes Received:
    1,948