Joe Cocker - You Can Leave Your Hat On (MTVIdol-1080i-DD2.0)-Olgold

Discussion in 'MTV IDOL' started by Olgold, Aug 27, 2015.

  1. Olgold

    Olgold Well-Known Member Capper

    Joined:
    Aug 19, 2015
    Messages:
    436
    Likes Received:
    1,666
    [​IMG]
    General
    Format : MPEG-TS
    File size : 218 MiB
    Duration : 4mn 17s
    Overall bit rate mode : Variable
    Overall bit rate : 7 100 Kbps

    Video
    Format : AVC
    Format/Info : Advanced Video Codec
    Format profile : [email protected]
    Format settings, CABAC : Yes
    Format settings, ReFrames : 4 frames
    Duration : 4mn 17s
    Bit rate : 6 490 Kbps
    Width : 1 920 pixels
    Height : 1 080 pixels
    Display aspect ratio : 16:9
    Frame rate : 25.000 fps
    Standard : Component
    Color space : YUV
    Chroma subsampling : 4:2:0
    Bit depth : 8 bits
    Scan type : MBAFF
    Scan order : Top Field First
    Bits/(Pixel*Frame) : 0.125
    Stream size : 199 MiB (91%)
    Color range : Limited

    Audio
    Format : AC-3
    Format/Info : Audio Coding 3
    Mode extension : CM (complete main)
    Format settings, Endianness : Big
    Duration : 4mn 17s
    Bit rate mode : Constant
    Bit rate : 256 Kbps
    Channel(s) : 2 channels
    Channel positions : Front: L R
    Sampling rate : 48.0 KHz
    Compression mode : Lossy
    Delay relative to video : 72ms
    Stream size : 7.87 MiB (4%)
    Language : French

    Hidden Content:
    You must reply before you can see the hidden data contained here.
     
    rhea, 777josem and CELOBRAZiL like this.
  2. rhea

    rhea Well-Known Member

    Joined:
    Jan 6, 2014
    Messages:
    6,412
    Likes Received:
    607
    thank you so much
     
  3. nolynexor88

    nolynexor88 Well-Known Member

    Joined:
    Sep 29, 2015
    Messages:
    1,119
    Likes Received:
    69
     
  4. Snorom6

    Snorom6 Well-Known Member V . I . P. Uploader

    Joined:
    Dec 17, 2015
    Messages:
    4,242
    Likes Received:
    4,780
  5. TrendMusic

    TrendMusic Well-Known Member

    Joined:
    Oct 7, 2013
    Messages:
    1,286
    Likes Received:
    85
  6. janito33

    janito33 Member

    Joined:
    Dec 10, 2014
    Messages:
    158
    Likes Received:
    1
    gracias por el video
     
  7. revilo18

    revilo18 Well-Known Member

    Joined:
    May 26, 2016
    Messages:
    1,691
    Likes Received:
    78
    THSJNKKK
     
  8. vuabip

    vuabip New Member

    Joined:
    Jan 1, 2017
    Messages:
    19
    Likes Received:
    1
    thanks