MOVIE Jinxed (2013) [1080p WEB-DL DD5.1 H264-TEENLOVER]

Discussion in 'Cinema Center' started by clublandtiger4, Jun 26, 2019.

  1. clublandtiger4

    clublandtiger4 The Pirate Princess

    Joined:
    Jun 8, 2019
    Messages:
    264
    Likes Received:
    844
    [​IMG]
    [​IMG]
    [​IMG]

    Code:
    Format version                           : Version 4 / Version 2
    File size                                : 2.59 GiB
    Duration                                 : 1h 9mn
    Overall bit rate                         : 5 370 Kbps
    Movie name                               : Jinxed (2013)
    Encoded date                             : UTC 2016-01-14 03:17:30
    Writing application                      : mkvmerge v8.2.0 ('World of Adventure') 64bit
    Writing library                          : libebml v1.3.1 + libmatroska v1.4.2
    
    Video
    ID                                       : 1
    Format                                   : AVC
    Format/Info                              : Advanced Video Codec
    Format profile                           : High@L4
    Format settings, CABAC                   : Yes
    Format settings, ReFrames                : 4 frames
    Codec ID                                 : V_MPEG4/ISO/AVC
    Duration                                 : 1h 9mn
    Bit rate                                 : 4 984 Kbps
    Width                                    : 1 916 pixels
    Height                                   : 1 076 pixels
    Display aspect ratio                     : 16:9
    Frame rate mode                          : Constant
    Frame rate                               : 23.976 (24000/1001) fps
    Color space                              : YUV
    Chroma subsampling                       : 4:2:0
    Bit depth                                : 8 bits
    Scan type                                : Progressive
    Bits/(Pixel*Frame)                       : 0.101
    Stream size                              : 2.41 GiB (93%)
    Language                                 : English
    Default                                  : Yes
    Forced                                   : No
    Color range                              : Limited
    Color primaries                          : BT.709
    Transfer characteristics                 : BT.709
    Matrix coefficients                      : BT.709
    
    Audio
    ID                                       : 2
    Format                                   : AC-3
    Format/Info                              : Audio Coding 3
    Mode extension                           : CM (complete main)
    Format settings, Endianness              : Big
    Codec ID                                 : A_AC3
    Duration                                 : 1h 9mn
    Bit rate mode                            : Constant
    Bit rate                                 : 384 Kbps
    Channel(s)                               : 6 channels
    Channel positions                        : Front: L C R, Side: L R, LFE
    Sampling rate                            : 48.0 KHz
    Frame rate                               : 31.250 fps (1536 spf)
    Compression mode                         : Lossy
    Stream size                              : 190 MiB (7%)
    Language                                 : English
    Default                                  : No
    Forced                                   : No
    
    Menu
    00:00:00.000                             : en:Chapter_01
    00:11:37.000                             : en:Chapter_02
    00:18:02.000                             : en:Chapter_03
    00:28:26.000                             : en:Chapter_04
    00:40:51.000                             : en:Chapter_05
    00:57:13.000                             : en:Chapter_06
    01:07:34.000                             : en:Chapter_07



    Download Server - Google Drive

    Hidden Content:
    You must reply before you can see the hidden data contained here.
     
    moszter likes this.
  2. Loading...


  3. DukeCyrax2126

    DukeCyrax2126 Member

    Joined:
    Jul 17, 2019
    Messages:
    68
    Likes Received:
    2
    Thanks...!
     
  4. Speake

    Speake Member

    Joined:
    Mar 24, 2019
    Messages:
    109
    Likes Received:
    2
    thanx
     
  5. moszter

    moszter Member

    Joined:
    Jul 10, 2016
    Messages:
    422
    Likes Received:
    16
    Thank you very much!
     
  6. Enertos@xd

    Enertos@xd New Member

    Joined:
    Oct 19, 2019
    Messages:
    11
    Likes Received:
    0
  7. squidw0rd

    squidw0rd Member Donor

    Joined:
    Mar 23, 2019
    Messages:
    80
    Likes Received:
    1
    any chance for a repost?
     
  8. sutiman

    sutiman Member

    Joined:
    May 18, 2016
    Messages:
    89
    Likes Received:
    1
    tanks
     
  9. Jersman

    Jersman Member

    Joined:
    Jul 13, 2019
    Messages:
    59
    Likes Received:
    0
    Thanks!