Jimin (AOA) feat. Iron - Puss 1080i DD2.0 H.264

Discussion in 'MNET' started by HDTiVi, Nov 27, 2015.

  1. HDTiVi

    HDTiVi Active Member

    Joined:
    Jun 16, 2014
    Messages:
    37
    Likes Received:
    281
    Jimin (AOA) feat. Iron - Puss 1080i DD2.0 H.264

    [​IMG] [​IMG]
    [​IMG] [​IMG]
    [​IMG][​IMG]
    [​IMG]

    Format : MPEG-TS
    File size : 208 MiB
    Duration : 2mn 6s
    Overall bit rate mode : Variable
    Overall bit rate : 13.8 Mbps

    Video
    ID : 17 (0x11)
    Menu ID : 1 (0x1)
    Format : MPEG Video
    Format version : Version 2
    Format profile : [email protected]
    Format settings, BVOP : Yes
    Format settings, Matrix : Default
    Format settings, GOP : M=3, N=12
    Format settings, picture st : Frame
    Codec ID : 2
    Duration : 2mn 6s
    Bit rate mode : Variable
    Bit rate : 12.8 Mbps
    Maximum bit rate : 24.0 Mbps
    Width : 1 920 pixels
    Height : 1 080 pixels
    Display aspect ratio : 16:9
    Frame rate : 29.970 fps
    Color space : YUV
    Chroma subsampling : 4:2:0
    Bit depth : 8 bits
    Scan type : Interlaced
    Scan order : Top Field First
    Compression mode : Lossy
    Bits/(Pixel*Frame) : 0.206
    Time code of first frame : 00:47:17:04
    Time code source : Group of pictures header
    GOP, Open/Closed : Open
    Stream size : 194 MiB (93%)

    Audio
    ID : 20 (0x14)
    Menu ID : 1 (0x1)
    Format : AC-3
    Format/Info : Audio Coding 3
    Mode extension : CM (complete main)
    Format settings, Endianness : Big
    Codec ID : 129
    Duration : 2mn 6s
    Bit rate mode : Constant
    Bit rate : 256 Kbps
    Channel(s) : 2 channels
    Channel positions : Front: L R
    Sampling rate : 48.0 KHz
    Bit depth : 16 bits
    Compression mode : Lossy
    Delay relative to video : -850ms
    Stream size : 3.87 MiB (2%)

    Hidden Content:
    You must either reply or click 'Like' to see the hidden information contained here.
     
    Stellar, rhea and joelh20101 like this.
  2. rhea

    rhea Well-Known Member

    Joined:
    Jan 6, 2014
    Messages:
    6,213
    Likes Received:
    516
    thanks a lot