Jessica Simpson - These Boots Are Made For Walkin' 1080i

Discussion in 'MHD' started by adam dark, Jan 10, 2014.

  1. indreams2011

    indreams2011 Member

    Joined:
    Dec 10, 2014
    Messages:
    663
    Likes Received:
    19
     
  2. GHN

    GHN Member

    Joined:
    Oct 27, 2014
    Messages:
    500
    Likes Received:
    12
    thank you
     
  3. milojicap

    milojicap Member

    Joined:
    Feb 1, 2015
    Messages:
    62
    Likes Received:
    1
    Thank you
     
  4. Joseph1020

    Joseph1020 Member

    Joined:
    May 26, 2015
    Messages:
    65
    Likes Received:
    0
    thanks you
     
  5. barnabas11

    barnabas11 Member

    Joined:
    Jul 4, 2014
    Messages:
    241
    Likes Received:
    14
    One of her best videos.
     
  6. atakano

    atakano Member

    Joined:
    Oct 6, 2014
    Messages:
    227
    Likes Received:
    3
    thanks for video
     
  7. Manoel Sampaio

    Manoel Sampaio Member

    Joined:
    Jul 26, 2014
    Messages:
    79
    Likes Received:
    25
    Thanks!
    Jessica Simpson - These Boots Are Made For Walkin'

    [​IMG]

    [​IMG]

    [​IMG]

    [​IMG]

    [​IMG]

    [​IMG]

    [​IMG]


    Code:
    General
    ID                             : 1 (0x1)
    Complete name                  : Jessica Simpson - These Boots Are Made For Walkin'.mkv
    Format                         : MPEG-TS
    File size                      : 538 MiB
    Duration                       : 4mn 9s
    Overall bit rate mode          : Variable
    Overall bit rate               : 18.1 Mbps
    
    Video
    ID                             : 2048 (0x800)
    Menu ID                        : 1 (0x1)
    Format                         : MPEG Video
    Format version                 : Version 2
    Format profile                 : [email protected]
    Format settings, BVOP          : No
    Format settings, Matrix        : Custom
    Format settings, GOP           : Variable
    Codec ID                       : 2
    Duration                       : 4mn 9s
    Bit rate mode                  : Variable
    Bit rate                       : 16.8 Mbps
    Maximum bit rate               : 38.8 Mbps
    Width                          : 1 920 pixels
    Height                         : 1 080 pixels
    Display aspect ratio           : 16:9
    Frame rate                     : 29.970 fps
    Color space                    : YUV
    Chroma subsampling             : 4:2:0
    Bit depth                      : 8 bits
    Scan type                      : Interlaced
    Scan order                     : Top Field First
    Compression mode               : Lossy
    Bits/(Pixel*Frame)             : 0.270
    Time code of first frame       : 00:00:00:00
    Time code source               : Group of pictures header
    Stream size                    : 500 MiB (93%)
    
    Audio
    ID                             : 2049 (0x801)
    Menu ID                        : 1 (0x1)
    Format                         : AC-3
    Format/Info                    : Audio Coding 3
    Mode extension                 : CM (complete main)
    Format settings, Endianness    : Big
    Codec ID                       : 129
    Duration                       : 4mn 9s
    Bit rate mode                  : Constant
    Bit rate                       : 384 Kbps
    Channel count                  : 2 channels
    Channel positions              : Front: L R
    Sampling rate                  : 48.0 KHz
    Bit depth                      : 16 bits
    Compression mode               : Lossy
    Stream size                    : 11.4 MiB (2%)
    
    Text
    ID                             : 2048 (0x800)-1
    Menu ID                        : 1 (0x1)
    Format                         : EIA-708
    Muxing mode                    : A/53 / DTVCC Transport
    Muxing mode, more info         : Muxed in Video #1
    Duration                       : 4mn 9s
    Bit rate mode                  : Constant
    Stream size                    : 0.00 Byte (0%)

    ***Hidden content cannot be quoted.***

    Credit to the original capper
    [/QUOTE]
     
    Josue Carminatti likes this.
  8. aturner18

    aturner18 Well-Known Member

    Joined:
    Oct 2, 2014
    Messages:
    1,326
    Likes Received:
    123
    loved her in dukes of hazards
     
  9. Bruno

    Bruno Well-Known Member

    Joined:
    Nov 3, 2013
    Messages:
    1,464
    Likes Received:
    115
    many thx for this
     
  10. Flaxdevil

    Flaxdevil Member

    Joined:
    May 25, 2014
    Messages:
    285
    Likes Received:
    10
    Thanks
     
  11. Josue Carminatti

    Josue Carminatti Member

    Joined:
    Jul 19, 2015
    Messages:
    390
    Likes Received:
    11
  12. andreamonger

    andreamonger Well-Known Member

    Joined:
    May 16, 2015
    Messages:
    1,068
    Likes Received:
    180
    thanks
     
  13. roberthls

    roberthls Member

    Joined:
    May 26, 2016
    Messages:
    154
    Likes Received:
    0
    thank you
     
  14. ns210193

    ns210193 Member

    Joined:
    Jun 16, 2016
    Messages:
    78
    Likes Received:
    2
  15. 90dartz

    90dartz Member

    Joined:
    Jun 10, 2016
    Messages:
    31
    Likes Received:
    1
    Thanx.
     
  16. rikylouis14

    rikylouis14 Well-Known Member

    Joined:
    Jun 27, 2016
    Messages:
    731
    Likes Received:
    439
    thanks!
     
  17. tapions

    tapions Active Member

    Joined:
    Aug 30, 2016
    Messages:
    906
    Likes Received:
    75
    gracias
     
  18. multimediafm

    multimediafm Well-Known Member Donor

    Joined:
    Mar 27, 2014
    Messages:
    10,458
    Likes Received:
    621
    Thanks :)
    Jessica Simpson - These Boots Are Made For Walkin' 1080i
     
  19. alanlighter

    alanlighter Member

    Joined:
    Aug 29, 2016
    Messages:
    78
    Likes Received:
    1
  20. rikstar

    rikstar Member

    Joined:
    Dec 3, 2015
    Messages:
    175
    Likes Received:
    7
    thanks for the video