Jessica Simpson - A Public Affair (VH1HD-1080i-DD2.0-CELOBRAZiL)-HDMania

Discussion in 'VH1 HD' started by KallumLavigne, Jan 7, 2014.

  1. KallumLavigne

    KallumLavigne Well-Known Member

    Joined:
    Nov 18, 2013
    Messages:
    677
    Likes Received:
    1,318
    [​IMG]

    Code:
    Complete name                  : Jessica Simpson - A Public Affair VH1HD 1080i.ts
    Format                        : MPEG-TS
    File size                      : 225 MiB
    Duration                      : 4mn 6s
    
    Video
    ID                            : 4113 (0x1011)
    Menu ID                        : 1 (0x1)
    Format                        : AVC
    Format/Info                    : Advanced Video Codec
    Format profile                : [email protected]
    Format settings, CABAC        : Yes
    Format settings, ReFrames      : 4 frames
    Codec ID                      : 27
    Duration                      : 4mn 6s
    Bit rate mode                  : Variable
    Bit rate                      : 7 000 Kbps
    Maximum bit rate              : 40.0 Mbps
    Width                          : 1 920 pixels
    Height                        : 1 080 pixels
    Display aspect ratio          : 16:9
    Frame rate                    : 30.000 fps
    Color space                    : YUV
    Chroma subsampling            : 4:2:0
    Bit depth                      : 8 bits
    Scan type                      : Progressive
    Bits/(Pixel*Frame)            : 0.113
    Stream size                    : 202 MiB (90%)
    
    Audio
    ID                            : 4352 (0x1100)
    Menu ID                        : 1 (0x1)
    Format                        : AC-3
    Format/Info                    : Audio Coding 3
    Mode extension                : CM (complete main)
    Format settings, Endianness    : Big
    Codec ID                      : 129
    Duration                      : 4mn 6s
    Bit rate mode                  : Constant
    Bit rate                      : 384 Kbps
    Channel count                  : 2 channels
    Channel positions              : Front: L R
    Sampling rate                  : 48.0 KHz
    Bit depth                      : 16 bits
    Compression mode              : Lossy
    Stream size                    : 11.3 MiB (5%)
    Language                      : English

    Capper: CELOBRAZiL

    Hidden Content:
    You must reply before you can see the hidden data contained here.
     
    Last edited by a moderator: May 20, 2014
    Luis Almeida, lyana94, Colby and 5 others like this.
  2. Loading...


  3. Chris

    Chris Member

    Joined:
    Oct 19, 2013
    Messages:
    693
    Likes Received:
    21
    Thank you
     
  4. ryualviss

    ryualviss Active Member

    Joined:
    Jan 6, 2014
    Messages:
    151
    Likes Received:
    560
    thanks for jessy
     
    gabekills likes this.
  5. pablo palormo

    pablo palormo Member

    Joined:
    Oct 27, 2013
    Messages:
    177
    Likes Received:
    2
    Thank You!:)
     
  6. lifevirgin

    lifevirgin Active Member

    Joined:
    Feb 15, 2014
    Messages:
    436
    Likes Received:
    35
     
  7. mike gunen

    mike gunen Active Member

    Joined:
    Nov 9, 2013
    Messages:
    887
    Likes Received:
    35
    Thank you
     
  8. dahill

    dahill Member

    Joined:
    Apr 4, 2014
    Messages:
    33
    Likes Received:
    0
    thanks
     
  9. Jawni

    Jawni Active Member

    Joined:
    Jan 24, 2014
    Messages:
    910
    Likes Received:
    29
    Thank You!
     
  10. 江雨燃双鱼

    江雨燃双鱼 Active Member

    Joined:
    Apr 5, 2014
    Messages:
    614
    Likes Received:
    43
    So amazing
     
  11. Henry Lee

    Henry Lee Member

    Joined:
    Apr 5, 2014
    Messages:
    38
    Likes Received:
    1
  12. boy

    boy Member

    Joined:
    Dec 19, 2013
    Messages:
    379
    Likes Received:
    10
    thx
     
  13. Rafael Claudino

    Rafael Claudino Member

    Joined:
    May 16, 2014
    Messages:
    46
    Likes Received:
    2
  14. Vinny

    Vinny Well-Known Member

    Joined:
    Dec 26, 2013
    Messages:
    3,617
    Likes Received:
    30
    Thank you!
     
  15. klaus

    klaus Active Member

    Joined:
    Sep 11, 2014
    Messages:
    1,077
    Likes Received:
    20
    thanks
     
  16. hapiny

    hapiny Member

    Joined:
    Nov 24, 2014
    Messages:
    553
    Likes Received:
    9
    thanks for sharing
     
  17. adam136

    adam136 Member

    Joined:
    Jan 8, 2015
    Messages:
    61
    Likes Received:
    3
    Thanks
     
  18. 777josem

    777josem ProRes 1080p LPCM V . I . P. Uploader

    Joined:
    Sep 1, 2014
    Messages:
    3,738
    Likes Received:
    3,040
    Thank you
     
  19. slill

    slill Active Member

    Joined:
    Jul 25, 2014
    Messages:
    1,097
    Likes Received:
    16
    thanks
     
  20. jonathan joel 97

    jonathan joel 97 Justin bieber

    Joined:
    Oct 1, 2015
    Messages:
    277
    Likes Received:
    200
    thanks you!!
     
  21. STONECOLD2020

    STONECOLD2020 Member

    Joined:
    Nov 6, 2015
    Messages:
    256
    Likes Received:
    15
    Thank you so much