Jessica Simpson – Sweetest Sin [Palladia 1080p]

Discussion in 'OTHERS' started by markitomg, Oct 28, 2020.

  1. markitomg

    markitomg Well-Known Member

    Joined:
    May 24, 2016
    Messages:
    1,885
    Likes Received:
    1,828
    [​IMG]

    Code:
    Format                         : Matroska
    Format version                 : Version 2
    File size                      : 104 MiB
    Duration                       : 2mn 59s
    Overall bit rate mode          : Variable
    Overall bit rate               : 4 870 Kbps
    Encoded date                   : UTC 2009-07-17 04:04:31
    Writing application            : mkvmerge v2.9.0 ('Moanin'') built on May 22 2009 17:46:31
    Writing library                : libebml v0.7.7 + libmatroska v0.8.1
    
    
    Video
    ID                             : 1
    Format                         : AVC
    Format/Info                    : Advanced Video Codec
    Format profile                 : High@L4.0
    Format settings, CABAC         : Yes
    Format settings, ReFrames      : 3 frames
    Codec ID                       : V_MPEG4/ISO/AVC
    Duration                       : 2mn 59s
    Bit rate mode                  : Variable
    Bit rate                       : 4 500 Kbps
    Maximum bit rate               : 25.0 Mbps
    Width                          : 1 280 pixels
    Height                         : 692 pixels
    Display aspect ratio           : 1.85:1
    Frame rate mode                : Constant
    Frame rate                     : 29.970 fps
    Color space                    : YUV
    Chroma subsampling             : 4:2:0
    Bit depth                      : 8 bits
    Scan type                      : Progressive
    Bits/(Pixel*Frame)             : 0.170
    Stream size                    : 93.8 MiB (90%)
    Writing library                : x264 core 67 r1169M ab85c9b
    Encoding settings              : cabac=1 / ref=3 / deblock=1:0:0 / analyse=0x3:0x133 / me=umh / subme=7 / psy_rd=1.0:0.0 / mixed_ref=1 / me_range=16 / chroma_me=1 / trellis=1 / 8x8dct=1 / cqm=0 / deadzone=21,11 / chroma_qp_offset=-2 / threads=3 / nr=0 / decimate=1 / mbaff=0 / bframes=3 / b_pyramid=0 / b_adapt=2 / b_bias=0 / direct=3 / wpredb=1 / keyint=250 / keyint_min=25 / scenecut=40 / rc=2pass / bitrate=4500 / ratetol=1.0 / qcomp=0.60 / qpmin=10 / qpmax=51 / qpstep=4 / cplxblur=20.0 / qblur=0.5 / vbv_maxrate=25000 / vbv_bufsize=25000 / ip_ratio=1.40 / pb_ratio=1.30 / aq=1:1.00
    Default                        : Yes
    Forced                         : No
    
    
    Audio
    ID                             : 2
    Format                         : AC-3
    Format/Info                    : Audio Coding 3
    Mode extension                 : CM (complete main)
    Format settings, Endianness    : Big
    Codec ID                       : A_AC3
    Duration                       : 2mn 59s
    Bit rate mode                  : Constant
    Bit rate                       : 384 Kbps
    Channel(s)                     : 2 channels
    Channel positions              : Front: L R
    Sampling rate                  : 48.0 KHz
    Bit depth                      : 16 bits
    Compression mode               : Lossy
    Stream size                    : 8.21 MiB (8%)
    Default                        : Yes
    Forced                         : No
    Hidden Content:
    You must reply before you can see the hidden data contained here.
     
    FanofTheStars likes this.
  2. Loading...


  3. FanofTheStars

    FanofTheStars Well-Known Member

    Joined:
    Feb 11, 2017
    Messages:
    5,462
    Likes Received:
    1,312
  4. J_Pablo

    J_Pablo Well-Known Member

    Joined:
    Nov 27, 2013
    Messages:
    978
    Likes Received:
    553
    Thanks for sharing!
     
  5. bsnl1

    bsnl1 Member

    Joined:
    Jun 15, 2019
    Messages:
    395
    Likes Received:
    14
    Thanks
     
  6. quake360

    quake360 Active Member

    Joined:
    Feb 1, 2020
    Messages:
    501
    Likes Received:
    30