Jeremih feat. French Montana & Ty Dolla $ign- Don't Tell Em (Remix) (REVOLTHD) 1080i H.264 DD2.0-HDM

Discussion in 'REVOLT' started by rgf72k, Jan 21, 2015.

  1. rgf72k

    rgf72k Founder Staff Member AdMiN Capper Uploader

    Joined:
    Oct 1, 2013
    Messages:
    1,087
    Likes Received:
    16,264
    [​IMG] [​IMG] [​IMG] [​IMG] [​IMG] [​IMG] [​IMG] [​IMG] [​IMG]

    General
    ID : 0 (0x0)
    Complete name : Jeremih feat. French Montana & Ty Dolla $ign- Don't Tell Em (Remix) (REVOLTHD) 1080i H.264 DD2.0-HDMania.TS
    Format : MPEG-TS
    File size : 390 MiB
    Duration : 3mn 48s
    Overall bit rate mode : Variable
    Overall bit rate : 14.3 Mbps

    Video
    ID : 4113 (0x1011)
    Menu ID : 1 (0x1)
    Format : AVC
    Format/Info : Advanced Video Codec
    Format profile : [email protected]
    Format settings, CABAC : Yes
    Format settings, ReFrames : 4 frames
    Codec ID : 27
    Duration : 3mn 48s
    Bit rate mode : Variable
    Bit rate : 13.2 Mbps
    Maximum bit rate : 20.0 Mbps
    Width : 1 920 pixels
    Height : 1 080 pixels
    Display aspect ratio : 16:9
    Frame rate : 29.970 fps
    Color space : YUV
    Chroma subsampling : 4:2:0
    Bit depth : 8 bits
    Scan type : Interlaced
    Scan order : Top Field First
    Bits/(Pixel*Frame) : 0.213
    Stream size : 360 MiB (92%)
    Color primaries : BT.709
    Transfer characteristics : BT.709
    Matrix coefficients : BT.709
    Color range : Limited

    Audio
    ID : 4352 (0x1100)
    Menu ID : 1 (0x1)
    Format : AC-3
    Format/Info : Audio Coding 3
    Mode extension : CM (complete main)
    Format settings, Endianness : Big
    Codec ID : 129
    Duration : 3mn 48s
    Bit rate mode : Constant
    Bit rate : 384 Kbps
    Channel(s) : 2 channels
    Channel positions : Front: L R
    Sampling rate : 48.0 KHz
    Bit depth : 16 bits
    Compression mode : Lossy
    Delay relative to video : -6ms
    Stream size : 10.5 MiB (3%)

    Download:
    Hidden Content:
    You must either reply or click 'Like' to see the hidden information contained here.

    Capped by Me :victory:
     
  2. Loading...


  3. Crusha

    Crusha Well-Known Member Capper V . I . P.

    Joined:
    Oct 15, 2014
    Messages:
    2,358
    Likes Received:
    2,650
    muchas gracias!!!
     
  4. rhea

    rhea Well-Known Member

    Joined:
    Jan 6, 2014
    Messages:
    6,956
    Likes Received:
    757
    thank you so much :)
     
  5. MCTR

    MCTR Active Member

    Joined:
    Feb 23, 2014
    Messages:
    295
    Likes Received:
    41
    thanks You
     
  6. furkan

    furkan Member

    Joined:
    Oct 9, 2015
    Messages:
    249
    Likes Received:
    7
    thnks youuu
     
  7. RUS22877773

    RUS22877773 Member

    Joined:
    Jan 7, 2016
    Messages:
    101
    Likes Received:
    1
    thank you
     
  8. DEDE0411

    DEDE0411 Member

    Joined:
    May 22, 2016
    Messages:
    43
    Likes Received:
    1
    Thank you
     
  9. Gatsby928

    Gatsby928 New Member

    Joined:
    Jul 23, 2017
    Messages:
    8
    Likes Received:
    0
    real real oppph