Jennifer Lopez - Jenny From The Block (MTVIDOL-1080i-DD2.0-Djodjara)-HDMania

Discussion in 'MTV IDOL' started by Djodjara, Apr 29, 2015.

  1. jonathan joel 97

    jonathan joel 97 Sasuke07kun

    Joined:
    Oct 1, 2015
    Messages:
    304
    Likes Received:
    215
    esta es chiva!
     
  2. jlopinoyfan

    jlopinoyfan Member

    Joined:
    Jul 6, 2014
    Messages:
    146
    Likes Received:
    8
    Thank you!
     
  3. furkan

    furkan Member

    Joined:
    Oct 9, 2015
    Messages:
    340
    Likes Received:
    12
    thnks youuu
     
  4. Puchacz93

    Puchacz93 Well-Known Member

    Joined:
    Feb 4, 2015
    Messages:
    1,206
    Likes Received:
    748
    Thank you.
     
  5. sori

    sori Member

    Joined:
    Oct 22, 2013
    Messages:
    117
    Likes Received:
    0
    thank you
     
  6. furkan

    furkan Member

    Joined:
    Oct 9, 2015
    Messages:
    340
    Likes Received:
    12
    thnks youuuu
     
  7. nolynexor88

    nolynexor88 Well-Known Member

    Joined:
    Sep 29, 2015
    Messages:
    1,362
    Likes Received:
    93
     
  8. Attention

    Attention Active Member

    Joined:
    Nov 30, 2013
    Messages:
    562
    Likes Received:
    33
    thanks dear
     
  9. getteg

    getteg Active Member

    Joined:
    Sep 24, 2014
    Messages:
    548
    Likes Received:
    31
    thank you
     
  10. greg505

    greg505 New Member

    Joined:
    Oct 28, 2015
    Messages:
    10
    Likes Received:
    0
    thanks
     
  11. Flaxdevil

    Flaxdevil Member

    Joined:
    May 25, 2014
    Messages:
    285
    Likes Received:
    12
    Thanks!
     
  12. Manoel Sampaio

    Manoel Sampaio Member

    Joined:
    Jul 26, 2014
    Messages:
    79
    Likes Received:
    26
    Thanks!
    Jennifer Lopez - Jenny From The Block (MTV Idol-1080i-Djodjara)-HDMania

    [​IMG]
    [​IMG]

    General:
    ID : 1 (0x1)
    Format : MPEG-TS
    File size : 117 MiB
    Duration : 3mn 7s
    Overall bit rate mode : Variable
    Overall bit rate : 5 237 Kbps

    Video:
    ID : 310 (0x136)
    Menu ID : 1 (0x1)
    Format : AVC
    Format/Info : Advanced Video Codec
    Format profile : High@L4.0
    Format settings, CABAC : Yes
    Format settings, ReFrames : 4 frames
    Codec ID : 27
    Duration : 3mn 7s
    Bit rate : 4 785 Kbps
    Width : 1 920 pixels
    Height : 1 080 pixels
    Display aspect ratio : 16:9
    Frame rate : 25.000 fps
    Standard : Component
    Color space : YUV
    Chroma subsampling : 4:2:0
    Bit depth : 8 bits
    Scan type : MBAFF
    Scan order : Top Field First
    Bits/(Pixel*Frame) : 0.092
    Stream size : 107 MiB (91%)
    Color primaries : BT.709
    Transfer characteristics : BT.709
    Matrix coefficients : BT.709
    Color range : Limited

    Audio:
    ID : 321 (0x141)
    Menu ID : 1 (0x1)
    Format : AC-3
    Format/Info : Audio Coding 3
    Mode extension : CM (complete main)
    Format settings, Endianness : Big
    Codec ID : 6
    Duration : 3mn 7s
    Bit rate mode : Constant
    Bit rate : 192 Kbps
    Channel(s) : 2 channels
    Channel positions : Front: L R
    Sampling rate : 48.0 KHz
    Bit depth : 16 bits
    Compression mode : Lossy
    Stream size : 4.28 MiB (4%)
    Language : French

    ***Hidden content cannot be quoted.***
    [/QUOTE]
     
  13. hacistar

    hacistar New Member

    Joined:
    Apr 24, 2016
    Messages:
    1
    Likes Received:
    0
    tank you
     
  14. revilo18

    revilo18 Well-Known Member

    Joined:
    May 26, 2016
    Messages:
    2,021
    Likes Received:
    97
    thankkk
     
  15. dzenailyjohn

    dzenailyjohn Member

    Joined:
    Oct 21, 2015
    Messages:
    226
    Likes Received:
    15
    thank you so much!
     
  16. Kancsar

    Kancsar Member

    Joined:
    Dec 22, 2015
    Messages:
    52
    Likes Received:
    3
    Thanks
     
  17. hguy3558

    hguy3558 New Member

    Joined:
    May 20, 2016
    Messages:
    25
    Likes Received:
    0
    thank you
     
  18. tapions

    tapions Active Member

    Joined:
    Aug 30, 2016
    Messages:
    956
    Likes Received:
    84
    gracias
     
  19. 3veronicas

    3veronicas Well-Known Member

    Joined:
    Aug 26, 2016
    Messages:
    1,544
    Likes Received:
    80
  20. dimafanasjev

    dimafanasjev Member

    Joined:
    Oct 6, 2016
    Messages:
    174
    Likes Received:
    13