Jennifer Lopez - Jenny From The Block (MTVIDOL-1080i-DD2.0-Djodjara)-HDMania

Discussion in 'MTV IDOL' started by Djodjara, Apr 29, 2015.

  1. jlopinoyfan

    jlopinoyfan Active Member

    Joined:
    Jul 6, 2014
    Messages:
    304
    Likes Received:
    26
    Thank you!
     
  2. furkan

    furkan Active Member

    Joined:
    Oct 9, 2015
    Messages:
    597
    Likes Received:
    27
    thnks youuu
     
  3. Puchacz93

    Puchacz93 Well-Known Member

    Joined:
    Feb 4, 2015
    Messages:
    1,274
    Likes Received:
    904
    Thank you.
     
  4. sori

    sori Member

    Joined:
    Oct 22, 2013
    Messages:
    187
    Likes Received:
    14
    thank you
     
  5. furkan

    furkan Active Member

    Joined:
    Oct 9, 2015
    Messages:
    597
    Likes Received:
    27
    thnks youuuu
     
  6. nolynexor88

    nolynexor88 nolynexor88

    Joined:
    Sep 29, 2015
    Messages:
    2,133
    Likes Received:
    220
     
  7. Attention

    Attention Active Member

    Joined:
    Nov 30, 2013
    Messages:
    559
    Likes Received:
    41
    thanks dear
     
  8. getteg

    getteg Active Member

    Joined:
    Sep 24, 2014
    Messages:
    605
    Likes Received:
    35
    thank you
     
  9. greg505

    greg505 New Member

    Joined:
    Oct 28, 2015
    Messages:
    10
    Likes Received:
    0
    thanks
     
  10. Flaxdevil

    Flaxdevil Member

    Joined:
    May 25, 2014
    Messages:
    285
    Likes Received:
    14
    Thanks!
     
  11. Manoel Sampaio

    Manoel Sampaio Member

    Joined:
    Jul 26, 2014
    Messages:
    79
    Likes Received:
    26
    Thanks!
    Jennifer Lopez - Jenny From The Block (MTV Idol-1080i-Djodjara)-HDMania

    [​IMG]
    [​IMG]

    General:
    ID : 1 (0x1)
    Format : MPEG-TS
    File size : 117 MiB
    Duration : 3mn 7s
    Overall bit rate mode : Variable
    Overall bit rate : 5 237 Kbps

    Video:
    ID : 310 (0x136)
    Menu ID : 1 (0x1)
    Format : AVC
    Format/Info : Advanced Video Codec
    Format profile : High@L4.0
    Format settings, CABAC : Yes
    Format settings, ReFrames : 4 frames
    Codec ID : 27
    Duration : 3mn 7s
    Bit rate : 4 785 Kbps
    Width : 1 920 pixels
    Height : 1 080 pixels
    Display aspect ratio : 16:9
    Frame rate : 25.000 fps
    Standard : Component
    Color space : YUV
    Chroma subsampling : 4:2:0
    Bit depth : 8 bits
    Scan type : MBAFF
    Scan order : Top Field First
    Bits/(Pixel*Frame) : 0.092
    Stream size : 107 MiB (91%)
    Color primaries : BT.709
    Transfer characteristics : BT.709
    Matrix coefficients : BT.709
    Color range : Limited

    Audio:
    ID : 321 (0x141)
    Menu ID : 1 (0x1)
    Format : AC-3
    Format/Info : Audio Coding 3
    Mode extension : CM (complete main)
    Format settings, Endianness : Big
    Codec ID : 6
    Duration : 3mn 7s
    Bit rate mode : Constant
    Bit rate : 192 Kbps
    Channel(s) : 2 channels
    Channel positions : Front: L R
    Sampling rate : 48.0 KHz
    Bit depth : 16 bits
    Compression mode : Lossy
    Stream size : 4.28 MiB (4%)
    Language : French

    ***Hidden content cannot be quoted.***
    [/QUOTE]
     
  12. hacistar

    hacistar New Member

    Joined:
    Apr 24, 2016
    Messages:
    18
    Likes Received:
    1
    tank you
     
  13. dzenailyjohn

    dzenailyjohn Active Member

    Joined:
    Oct 21, 2015
    Messages:
    455
    Likes Received:
    26
    thank you so much!
     
  14. Kancsar

    Kancsar Member

    Joined:
    Dec 22, 2015
    Messages:
    55
    Likes Received:
    4
    Thanks
     
  15. hguy3558

    hguy3558 Member

    Joined:
    May 20, 2016
    Messages:
    53
    Likes Received:
    3
    thank you
     
  16. tapions

    tapions Well-Known Member

    Joined:
    Aug 30, 2016
    Messages:
    1,250
    Likes Received:
    127
    gracias
     
  17. 3veronicas

    3veronicas Well-Known Member

    Joined:
    Aug 26, 2016
    Messages:
    5,186
    Likes Received:
    434
  18. dimafanasjev

    dimafanasjev Active Member

    Joined:
    Oct 6, 2016
    Messages:
    215
    Likes Received:
    42
  19. Tommyboy

    Tommyboy Well-Known Member

    Joined:
    Oct 23, 2016
    Messages:
    1,457
    Likes Received:
    60
    Thank you
     
  20. badine82

    badine82 Member

    Joined:
    Oct 24, 2015
    Messages:
    571
    Likes Received:
    18