Jennifer Lopez - Jenny From The Block (MTVIDOL-1080i-DD2.0-Djodjara)-HDMania

Discussion in 'MTV IDOL' started by Djodjara, Apr 29, 2015.

  1. Djodjara

    Djodjara Gwen Fan Capper

    Joined:
    Sep 6, 2014
    Messages:
    888
    Likes Received:
    1,655
    Jennifer Lopez - Jenny From The Block (MTV Idol-1080i-Djodjara)-HDMania

    [​IMG]
    [​IMG]

    General:
    ID : 1 (0x1)
    Format : MPEG-TS
    File size : 117 MiB
    Duration : 3mn 7s
    Overall bit rate mode : Variable
    Overall bit rate : 5 237 Kbps

    Video:
    ID : 310 (0x136)
    Menu ID : 1 (0x1)
    Format : AVC
    Format/Info : Advanced Video Codec
    Format profile : High@L4.0
    Format settings, CABAC : Yes
    Format settings, ReFrames : 4 frames
    Codec ID : 27
    Duration : 3mn 7s
    Bit rate : 4 785 Kbps
    Width : 1 920 pixels
    Height : 1 080 pixels
    Display aspect ratio : 16:9
    Frame rate : 25.000 fps
    Standard : Component
    Color space : YUV
    Chroma subsampling : 4:2:0
    Bit depth : 8 bits
    Scan type : MBAFF
    Scan order : Top Field First
    Bits/(Pixel*Frame) : 0.092
    Stream size : 107 MiB (91%)
    Color primaries : BT.709
    Transfer characteristics : BT.709
    Matrix coefficients : BT.709
    Color range : Limited

    Audio:
    ID : 321 (0x141)
    Menu ID : 1 (0x1)
    Format : AC-3
    Format/Info : Audio Coding 3
    Mode extension : CM (complete main)
    Format settings, Endianness : Big
    Codec ID : 6
    Duration : 3mn 7s
    Bit rate mode : Constant
    Bit rate : 192 Kbps
    Channel(s) : 2 channels
    Channel positions : Front: L R
    Sampling rate : 48.0 KHz
    Bit depth : 16 bits
    Compression mode : Lossy
    Stream size : 4.28 MiB (4%)
    Language : French

    Hidden Content:
    You must reply before you can see the hidden data contained here.
     
    curg, jloismyhq, Puchacz93 and 5 others like this.
  2. Loading...


  3. Dreamer

    Dreamer Lana Del Rey ♥ Halsey ♥ Iggy Azalea Capper V . I . P. Uploader

    Joined:
    Dec 4, 2014
    Messages:
    3,012
    Likes Received:
    5,302
    Thank you
     
  4. 777josem

    777josem ProRes 1080p LPCM

    Joined:
    Sep 1, 2014
    Messages:
    3,737
    Likes Received:
    3,242
    :DOMG! This is a classic of classics! ... :happy:Thank you so much!
     
    Djodjara likes this.
  5. Crusha

    Crusha Well-Known Member Capper V . I . P.

    Joined:
    Oct 15, 2014
    Messages:
    2,358
    Likes Received:
    2,780
    thank you very much :)
     
  6. Zatimi

    Zatimi Active Member

    Joined:
    Aug 27, 2014
    Messages:
    814
    Likes Received:
    174
    thanks a lot
     
  7. mike gunen

    mike gunen Active Member

    Joined:
    Nov 9, 2013
    Messages:
    924
    Likes Received:
    38
    Thank you
     
  8. Buddy

    Buddy Member

    Joined:
    Feb 15, 2014
    Messages:
    101
    Likes Received:
    2
    Thank you very much :)
     
  9. cero

    cero Member

    Joined:
    Nov 1, 2013
    Messages:
    141
    Likes Received:
    1
    thanks u
     
  10. joelh20101

    joelh20101 Well-Known Member

    Joined:
    Nov 4, 2013
    Messages:
    1,511
    Likes Received:
    159
    thanks for this
     
  11. lukierrywhere

    lukierrywhere Member

    Joined:
    May 1, 2015
    Messages:
    173
    Likes Received:
    5
    thank you
     
  12. Lakatos

    Lakatos Member

    Joined:
    Nov 18, 2014
    Messages:
    56
    Likes Received:
    1
    Thank You
     
  13. Joseph

    Joseph Active Member

    Joined:
    Dec 10, 2013
    Messages:
    749
    Likes Received:
    172
    thank you!
     
  14. rhea

    rhea Well-Known Member

    Joined:
    Jan 6, 2014
    Messages:
    7,550
    Likes Received:
    903
    thank you so much! :)
     
  15. Chris

    Chris Active Member

    Joined:
    Oct 19, 2013
    Messages:
    730
    Likes Received:
    25
    Thank you
     
  16. 江雨燃双鱼

    江雨燃双鱼 Active Member

    Joined:
    Apr 5, 2014
    Messages:
    614
    Likes Received:
    45
  17. mizdot

    mizdot Well-Known Member

    Joined:
    Nov 13, 2014
    Messages:
    2,355
    Likes Received:
    91
    tnx man
     
  18. multimediafm

    multimediafm Well-Known Member Donor

    Joined:
    Mar 27, 2014
    Messages:
    11,970
    Likes Received:
    794
    Thanks :)
    Jennifer Lopez - Jenny From The Block (MTV Idol-1080i-Djodjara)-HDMania
     
  19. ericbook

    ericbook Member

    Joined:
    Jan 3, 2014
    Messages:
    202
    Likes Received:
    3
    gracias por el video
     
  20. Vinny

    Vinny Well-Known Member

    Joined:
    Dec 26, 2013
    Messages:
    3,781
    Likes Received:
    41
    Thanks! ;D
     
  21. arnold

    arnold Member

    Joined:
    Oct 29, 2014
    Messages:
    242
    Likes Received:
    4
    thank u!