HDTV Jennifer Lopez - I'm into You - Alan Carr Chatty Man Channel 4 HD 17-June-2011 madonion007 1080i

Discussion in 'HD Live Performances' started by hanshermann, Feb 12, 2018.

  1. hanshermann

    hanshermann Well-Known Member Uploader

    Joined:
    Aug 24, 2016
    Messages:
    6,320
    Likes Received:
    9,125
    [​IMG]
    Jennifer Lopez - I'm into You - Alan Carr Chatty Man Channel 4 HD 17-June-2011 madonion007 1080i

    Code:
    General
    ID                          : 1 (0x1)
    Complete name               : Jennifer Lopez - I'm into You.Alan Carr Chatty Man.Channel 4 HD.17-June-2011.madonion007.ts
    Format                      : MPEG-TS
    File size                   : 270 MiB
    Duration                    : 4 min 2 s
    Overall bit rate mode       : Variable
    Overall bit rate            : 9 327 kb/s
    
    Video
    ID                          : 2305 (0x901)
    Menu ID                     : 1 (0x1)
    Format                      : AVC
    Format/Info                 : Advanced Video Codec
    Format profile              : Main@L4
    Format settings, CABAC      : Yes
    Format settings, ReFrames   : 4 frames
    Codec ID                    : 27
    Duration                    : 4 min 2 s
    Bit rate                    : 8 478 kb/s
    Width                       : 1 920 pixels
    Height                      : 1 080 pixels
    Display aspect ratio        : 16:9
    Frame rate                  : 25.000 FPS
    Color space                 : YUV
    Chroma subsampling          : 4:2:0
    Bit depth                   : 8 bits
    Scan type                   : Interlaced
    Scan type, store method     : Separated fields
    Scan order                  : Top Field First
    Bits/(Pixel*Frame)          : 0.164
    Stream size                 : 246 MiB (91%)
    Color range                 : Limited
    Color primaries             : BT.709
    Transfer characteristics    : BT.709
    Matrix coefficients         : BT.709
    
    Audio
    ID                          : 2306 (0x902)
    Menu ID                     : 1 (0x1)
    Format                      : AC-3
    Format/Info                 : Audio Coding 3
    Format settings, Endianness : Big
    Codec ID                    : 6
    Duration                    : 4 min 2 s
    Bit rate mode               : Constant
    Bit rate                    : 384 kb/s
    Channel(s)                  : 2 channels
    Channel positions           : Front: L R
    Sampling rate               : 48.0 kHz
    Frame rate                  : 31.250 FPS (1536 spf)
    Bit depth                   : 16 bits
    Compression mode            : Lossy
    Stream size                 : 11.1 MiB (4%)
    Language                    : English
    Service kind                : Complete Main
    
    Hidden Content:
    You must either reply or click 'Like' to see the hidden information contained here.
     
    Last edited: Apr 13, 2018
  2. Loading...


  3. dimafanasjev

    dimafanasjev Member

    Joined:
    Oct 6, 2016
    Messages:
    179
    Likes Received:
    13
  4. redfive

    redfive Member

    Joined:
    Mar 11, 2016
    Messages:
    133
    Likes Received:
    3
    Thank you
     
  5. multimediafm

    multimediafm Well-Known Member Donor

    Joined:
    Mar 27, 2014
    Messages:
    12,683
    Likes Received:
    985
  6. sylvieyunjae

    sylvieyunjae Active Member

    Joined:
    Feb 29, 2016
    Messages:
    833
    Likes Received:
    39
  7. BetaKsi

    BetaKsi Well-Known Member

    Joined:
    Oct 18, 2015
    Messages:
    1,890
    Likes Received:
    529
    Thank you))
     
  8. frisby

    frisby Well-Known Member

    Joined:
    Nov 21, 2015
    Messages:
    1,431
    Likes Received:
    132
    thanks
     
  9. silentnight247

    silentnight247 Member

    Joined:
    Jun 2, 2016
    Messages:
    162
    Likes Received:
    5
  10. majkimalek

    majkimalek Member

    Joined:
    Jun 12, 2016
    Messages:
    144
    Likes Received:
    14
  11. rhea

    rhea Well-Known Member

    Joined:
    Jan 6, 2014
    Messages:
    7,812
    Likes Received:
    993
    thanks :)
     
  12. revilo18

    revilo18 Well-Known Member

    Joined:
    May 26, 2016
    Messages:
    2,068
    Likes Received:
    102
    thankkkk
     
  13. toonbbv

    toonbbv Well-Known Member

    Joined:
    Dec 11, 2013
    Messages:
    2,134
    Likes Received:
    101
    thank you
     
  14. mcslimshady

    mcslimshady Well-Known Member

    Joined:
    Jun 20, 2016
    Messages:
    1,778
    Likes Received:
    46
  15. cevatsoyturk

    cevatsoyturk Member

    Joined:
    Oct 8, 2014
    Messages:
    239
    Likes Received:
    21
    thabks
     
  16. apl3

    apl3 Active Member

    Joined:
    Jun 11, 2017
    Messages:
    982
    Likes Received:
    28
    thanks
     
  17. sahlaegball

    sahlaegball Member

    Joined:
    Feb 9, 2018
    Messages:
    75
    Likes Received:
    1
    wrew werwr
     
  18. Fabien Fournier

    Fabien Fournier Active Member

    Joined:
    Nov 14, 2013
    Messages:
    646
    Likes Received:
    69
    Thanks
     
  19. Parrot6

    Parrot6 Member

    Joined:
    May 13, 2016
    Messages:
    162
    Likes Received:
    7
    thanks
     
  20. mizdot

    mizdot Well-Known Member

    Joined:
    Nov 13, 2014
    Messages:
    2,618
    Likes Received:
    113
    tnx man
     
  21. chrisjlover2

    chrisjlover2 Member

    Joined:
    Oct 25, 2015
    Messages:
    180
    Likes Received:
    16
    Thanks