SDTV Jennifer Lopez - If You Had My Love (TVE Fin De Ano 1999 Live)

Discussion in 'SD Live Performances' started by hanshermann, Feb 12, 2018.

  1. hanshermann

    hanshermann Well-Known Member Uploader

    Joined:
    Aug 24, 2016
    Messages:
    7,507
    Likes Received:
    13,289
    [​IMG]

    Jennifer Lopez - If You Had My Love (TVE Fin De Ano 1999 Live)

    General
    Complete name : Jennifer Lopez - If_You_Had_My_Love___TVE_Fin_De_Ano_1999_-_LivesPerformances.mpeg
    Format : MPEG-PS
    File size : 167 MiB
    Duration : 3 min 42 s
    Overall bit rate mode : Variable
    Overall bit rate : 6 297 kb/s

    Video
    ID : 224 (0xE0)
    Format : MPEG Video
    Format version : Version 2
    Format profile : Main@Main
    Format settings, BVOP : Yes
    Format settings, Matrix : Custom
    Format settings, GOP : Variable
    Format settings, picture st : Frame
    Duration : 3 min 42 s
    Bit rate mode : Variable
    Bit rate : 5 948 kb/s
    Maximum bit rate : 8 500 kb/s
    Width : 720 pixels
    Height : 576 pixels
    Display aspect ratio : 4:3
    Frame rate : 25.000 FPS
    Standard : PAL
    Color space : YUV
    Chroma subsampling : 4:2:0
    Bit depth : 8 bits
    Scan type : Interlaced
    Scan order : Top Field First
    Compression mode : Lossy
    Bits/(Pixel*Frame) : 0.574
    Time code of first frame : 00:00:00:00
    Time code source : Group of pictures header
    GOP, Open/Closed : Open
    GOP, Open/Closed of first f : Closed
    Stream size : 158 MiB (94%)
    Color primaries : BT.601 NTSC
    Transfer characteristics : BT.601
    Matrix coefficients : BT.601

    Audio
    ID : 192 (0xC0)
    Format : MPEG Audio
    Format version : Version 1
    Format profile : Layer 2
    Duration : 3 min 42 s
    Bit rate mode : Constant
    Bit rate : 224 kb/s
    Channel(s) : 2 channels
    Sampling rate : 48.0 kHz
    Compression mode : Lossy
    Delay relative to video : -40 ms
    Stream size : 5.95 MiB (4%)

    Hidden Content:
    You must either reply or click 'Like' to see the hidden information contained here.
     
    Last edited: Apr 13, 2018
  2. Loading...


  3. aaliyah2009

    aaliyah2009 Well-Known Member

    Joined:
    Feb 2, 2017
    Messages:
    1,333
    Likes Received:
    37
    thank you
     
  4. multimediafm

    multimediafm Well-Known Member Donor

    Joined:
    Mar 27, 2014
    Messages:
    13,568
    Likes Received:
    1,063
  5. jloveres

    jloveres Active Member

    Joined:
    Jun 14, 2015
    Messages:
    747
    Likes Received:
    216
    Que coj ones es esto?
     
  6. BetaKsi

    BetaKsi Well-Known Member

    Joined:
    Oct 18, 2015
    Messages:
    2,261
    Likes Received:
    592
    Thank you))
     
  7. silentnight247

    silentnight247 Member

    Joined:
    Jun 2, 2016
    Messages:
    162
    Likes Received:
    5
  8. Danny82

    Danny82 Well-Known Member

    Joined:
    May 28, 2016
    Messages:
    2,480
    Likes Received:
    745
    Thank you!
     
  9. toonbbv

    toonbbv Well-Known Member

    Joined:
    Dec 11, 2013
    Messages:
    2,289
    Likes Received:
    108
    thsank you
     
  10. Maura

    Maura Well-Known Member

    Joined:
    Apr 7, 2014
    Messages:
    3,267
    Likes Received:
    107
    Thank you
     
  11. ImLoser

    ImLoser Well-Known Member

    Joined:
    May 12, 2016
    Messages:
    2,572
    Likes Received:
    93
    thanks
     
  12. pinky

    pinky Well-Known Member

    Joined:
    Jun 27, 2015
    Messages:
    1,585
    Likes Received:
    56
    thank you :)
     
  13. Pavulon

    Pavulon Well-Known Member Donor

    Joined:
    Mar 22, 2016
    Messages:
    4,668
    Likes Received:
    1,030
    thanks
     
  14. dinhotwain

    dinhotwain Well-Known Member

    Joined:
    Jan 1, 2015
    Messages:
    1,238
    Likes Received:
    143
  15. peny20

    peny20 Well-Known Member

    Joined:
    Oct 23, 2013
    Messages:
    2,245
    Likes Received:
    55
    thank you:)
     
  16. exterminador

    exterminador Well-Known Member

    Joined:
    Jul 3, 2016
    Messages:
    2,562
    Likes Received:
    213
  17. Causeislae

    Causeislae Active Member

    Joined:
    Jul 9, 2017
    Messages:
    514
    Likes Received:
    42
    Th
    Xxxxx
     
  18. marcelwithluv

    marcelwithluv Active Member

    Joined:
    Sep 1, 2016
    Messages:
    403
    Likes Received:
    51
  19. marcelwithluv

    marcelwithluv Active Member

    Joined:
    Sep 1, 2016
    Messages:
    403
    Likes Received:
    51
  20. franklele

    franklele Well-Known Member

    Joined:
    Nov 11, 2013
    Messages:
    2,605
    Likes Received:
    156
    thank you very much
     
  21. itzjakebitch

    itzjakebitch Member

    Joined:
    Jan 25, 2017
    Messages:
    238
    Likes Received:
    3
    thank you