SDTV Jennifer Lopez - If You Had My Love (Letterman)

Discussion in 'SD Live Performances' started by hanshermann, Feb 12, 2018.

  1. hanshermann

    hanshermann Well-Known Member Uploader

    Joined:
    Aug 24, 2016
    Messages:
    7,507
    Likes Received:
    13,290
    [​IMG]

    Jennifer Lopez - If You Had My Love (Letterman)

    General
    Complete name : Jennifer Lopez - If You Had My Love (Letterman).mpg
    Format : MPEG-PS
    File size : 36.3 MiB
    Duration : 3 min 43 s
    Overall bit rate mode : Constant
    Overall bit rate : 1 363 kb/s
    Writing library : encoded by TMPGEnc (ver. 2.521.58.169)

    Video
    ID : 224 (0xE0)
    Format : MPEG Video
    Format version : Version 1
    Format settings, BVOP : Yes
    Format settings, Matrix : Custom
    Format settings, GOP : M=3, N=18
    Duration : 3 min 43 s
    Bit rate mode : Constant
    Bit rate : 1 150 kb/s
    Width : 320 pixels
    Height : 240 pixels
    Display aspect ratio : 4:3
    Frame rate : 30.000 FPS
    Color space : YUV
    Chroma subsampling : 4:2:0
    Bit depth : 8 bits
    Scan type : Progressive
    Compression mode : Lossy
    Bits/(Pixel*Frame) : 0.499
    Time code of first frame : 00:00:00:00
    Time code source : Group of pictures header
    GOP, Open/Closed : Open
    GOP, Open/Closed of first f : Closed
    Stream size : 30.4 MiB (84%)
    Writing library : TMPGEnc 2.521.58.169

    Audio
    ID : 192 (0xC0)
    Format : MPEG Audio
    Format version : Version 1
    Format profile : Layer 2
    Duration : 3 min 43 s
    Bit rate mode : Constant
    Bit rate : 192 kb/s
    Channel(s) : 2 channels
    Sampling rate : 32.0 kHz
    Compression mode : Lossy
    Stream size : 5.11 MiB (14%)

    Hidden Content:
    You must either reply or click 'Like' to see the hidden information contained here.
     
    Last edited: Apr 13, 2018
    Causeislae, miguelmr87, apl3 and 5 others like this.
  2. Loading...


  3. Cadu

    Cadu Member

    Joined:
    Feb 1, 2016
    Messages:
    314
    Likes Received:
    19
    thank you
     
  4. multimediafm

    multimediafm Well-Known Member Donor

    Joined:
    Mar 27, 2014
    Messages:
    13,568
    Likes Received:
    1,063
  5. BetaKsi

    BetaKsi Well-Known Member

    Joined:
    Oct 18, 2015
    Messages:
    2,261
    Likes Received:
    592
    Thank you))
     
  6. silentnight247

    silentnight247 Member

    Joined:
    Jun 2, 2016
    Messages:
    162
    Likes Received:
    5
  7. Danny82

    Danny82 Well-Known Member

    Joined:
    May 28, 2016
    Messages:
    2,480
    Likes Received:
    745
    Thank you!!!
     
  8. toonbbv

    toonbbv Well-Known Member

    Joined:
    Dec 11, 2013
    Messages:
    2,289
    Likes Received:
    108
    thank you
     
  9. dinhotwain

    dinhotwain Well-Known Member

    Joined:
    Jan 1, 2015
    Messages:
    1,238
    Likes Received:
    143
  10. exterminador

    exterminador Well-Known Member

    Joined:
    Jul 3, 2016
    Messages:
    2,562
    Likes Received:
    213
  11. hugomota

    hugomota Member

    Joined:
    Oct 4, 2014
    Messages:
    353
    Likes Received:
    16
    tnks so muxxx
     
  12. aaliyah2009

    aaliyah2009 Well-Known Member

    Joined:
    Feb 2, 2017
    Messages:
    1,333
    Likes Received:
    37
  13. Causeislae

    Causeislae Active Member

    Joined:
    Jul 9, 2017
    Messages:
    514
    Likes Received:
    42
  14. Amauri Luiz

    Amauri Luiz Well-Known Member

    Joined:
    Jan 14, 2014
    Messages:
    2,033
    Likes Received:
    84
  15. Amauri Luiz

    Amauri Luiz Well-Known Member

    Joined:
    Jan 14, 2014
    Messages:
    2,033
    Likes Received:
    84
  16. Nefertiti

    Nefertiti Member

    Joined:
    Mar 3, 2015
    Messages:
    184
    Likes Received:
    6
    Thanks for Jennifer!
     
  17. asexycowboy

    asexycowboy Active Member

    Joined:
    Apr 6, 2015
    Messages:
    666
    Likes Received:
    46
    Thank you))
     
  18. pinky

    pinky Well-Known Member

    Joined:
    Jun 27, 2015
    Messages:
    1,585
    Likes Received:
    56
    thank you :)