SDTV Jennifer Lopez - If You Had My Love (Darkchild Remix) (Live At VH-1 Fashion Award 1999) svcd-dvd

Discussion in 'SD Live Performances' started by hanshermann, Feb 12, 2018.

  1. hanshermann

    hanshermann Well-Known Member Uploader

    Joined:
    Aug 24, 2016
    Messages:
    6,320
    Likes Received:
    9,125
    [​IMG]

    Jennifer Lopez - If You Had My Love (Darkchild Remix) (Live At VH-1 Fashion Award 1999) svcd-dvd

    General
    Complete name : D:\Videos\VMusic\Sharemania\Neuer Ordner (2)\Jennifer Lopez - If You Had My Love (Darkshild Remix) (Live At VH-1 Fashion Award 1999) (svcd-dvd\Jennifer Lopez - If You Had My Love (Darkshild Remix) (Live At VH-1 Fashion Award 1999) (svcd-dvd.mpg
    Format : MPEG-PS
    File size : 127 MiB
    Duration : 3 min 29 s
    Overall bit rate mode : Variable
    Overall bit rate : 5 089 kb/s
    Writing library : encoded by TMPGEnc (ver. 2.520.54.163)

    Video
    ID : 224 (0xE0)
    Format : MPEG Video
    Format version : Version 2
    Format profile : Main@Main
    Format settings, BVOP : Yes
    Format settings, Matrix : Custom
    Format settings, GOP : M=3, N=18
    Duration : 3 min 29 s
    Bit rate mode : Variable
    Bit rate : 4 796 kb/s
    Maximum bit rate : 5 000 kb/s
    Width : 720 pixels
    Height : 576 pixels
    Display aspect ratio : 4:3
    Frame rate : 25.000 FPS
    Standard : PAL
    Color space : YUV
    Chroma subsampling : 4:2:0
    Bit depth : 8 bits
    Scan type : Progressive
    Compression mode : Lossy
    Bits/(Pixel*Frame) : 0.463
    Time code of first frame : 00:00:00:00
    Time code source : Group of pictures header
    GOP, Open/Closed : Open
    GOP, Open/Closed of first f : Closed
    Stream size : 120 MiB (94%)
    Writing library : TMPGEnc 2.520.54.163
    Color primaries : BT.601 PAL
    Transfer characteristics : BT.470 System B, BT.470 System G
    Matrix coefficients : FCC 73.682

    Audio
    ID : 192 (0xC0)
    Format : MPEG Audio
    Format version : Version 1
    Format profile : Layer 2
    Duration : 3 min 29 s
    Bit rate mode : Constant
    Bit rate : 192 kb/s
    Channel(s) : 2 channels
    Sampling rate : 48.0 kHz
    Compression mode : Lossy
    Stream size : 4.79 MiB (4%)

    Hidden Content:
    You must either reply or click 'Like' to see the hidden information contained here.
     
    Last edited: Apr 13, 2018
  2. Loading...


  3. multimediafm

    multimediafm Well-Known Member Donor

    Joined:
    Mar 27, 2014
    Messages:
    12,683
    Likes Received:
    985
  4. silentnight247

    silentnight247 Member

    Joined:
    Jun 2, 2016
    Messages:
    162
    Likes Received:
    5
  5. toonbbv

    toonbbv Well-Known Member

    Joined:
    Dec 11, 2013
    Messages:
    2,134
    Likes Received:
    101
    thank you
     
  6. dinhotwain

    dinhotwain Well-Known Member

    Joined:
    Jan 1, 2015
    Messages:
    1,108
    Likes Received:
    115
  7. HausOfEnigma

    HausOfEnigma Active Member

    Joined:
    Mar 18, 2015
    Messages:
    344
    Likes Received:
    33
  8. cdh928

    cdh928 Member

    Joined:
    Oct 7, 2013
    Messages:
    138
    Likes Received:
    12
    thanks
     
  9. Amauri Luiz

    Amauri Luiz Well-Known Member

    Joined:
    Jan 14, 2014
    Messages:
    1,785
    Likes Received:
    70
  10. Nefertiti

    Nefertiti Member

    Joined:
    Mar 3, 2015
    Messages:
    180
    Likes Received:
    5
    Thanks for Jennifer!
     
  11. rkgmade

    rkgmade Member

    Joined:
    Sep 29, 2016
    Messages:
    486
    Likes Received:
    17
    THAK YOU
     
  12. lugurod

    lugurod Member

    Joined:
    Oct 4, 2014
    Messages:
    163
    Likes Received:
    9
    grcies
     
  13. amorafodasepiroks

    amorafodasepiroks Member

    Joined:
    Apr 14, 2018
    Messages:
    121
    Likes Received:
    5
  14. mjh13578

    mjh13578 Member

    Joined:
    Dec 7, 2013
    Messages:
    420
    Likes Received:
    13
    Thank you!:victory:
     
  15. pinky

    pinky Well-Known Member

    Joined:
    Jun 27, 2015
    Messages:
    1,497
    Likes Received:
    54
    thank you :)
     
  16. lucashenriique

    lucashenriique New Member

    Joined:
    Aug 3, 2017
    Messages:
    13
    Likes Received:
    0
    Thank you