SDTV Jennifer Lopez - If You Had My Love (Blockbuster Movie Awards 1999)

Discussion in 'SD Live Performances' started by hanshermann, Feb 12, 2018.

  1. hanshermann

    hanshermann Well-Known Member Uploader

    Joined:
    Aug 24, 2016
    Messages:
    7,507
    Likes Received:
    13,289
    [​IMG]

    Jennifer Lopez - If You Had My Love (Blockbuster Movie Awards 1999)

    General
    Complete name : Jennifer Lopez - If_You_Had_My_Love__Blockbuster_Movie_Awars_1999_.vob
    Format : MPEG-PS
    File size : 160 MiB
    Duration : 3 min 46 s
    Overall bit rate mode : Variable
    Overall bit rate : 5 918 kb/s

    Video
    ID : 224 (0xE0)
    Format : MPEG Video
    Format version : Version 2
    Format profile : Main@Main
    Format settings, BVOP : Yes
    Format settings, Matrix : Custom
    Format settings, GOP : M=3, N=12
    Format settings, picture st : Frame
    Duration : 3 min 46 s
    Bit rate mode : Variable
    Bit rate : 3 816 kb/s
    Maximum bit rate : 9 800 kb/s
    Width : 720 pixels
    Height : 576 pixels
    Display aspect ratio : 4:3
    Frame rate : 25.000 FPS
    Standard : PAL
    Color space : YUV
    Chroma subsampling : 4:2:0
    Bit depth : 8 bits
    Scan type : Interlaced
    Scan order : Top Field First
    Compression mode : Lossy
    Bits/(Pixel*Frame) : 0.368
    Stream size : 103 MiB (64%)

    Audio #1
    ID : 189 (0xBD)-129 (0x81)
    Format : AC-3
    Format/Info : Audio Coding 3
    Format settings, Endianness : Big
    Muxing mode : DVD-Video
    Duration : 3 min 45 s
    Bit rate mode : Constant
    Bit rate : 448 kb/s
    Channel(s) : 6 channels
    Channel positions : Front: L C R, Side: L R, LFE
    Sampling rate : 48.0 kHz
    Frame rate : 31.250 FPS (1536 spf)
    Bit depth : 16 bits
    Compression mode : Lossy
    Stream size : 12.1 MiB (8%)
    Service kind : Complete Main

    Audio #2
    ID : 189 (0xBD)-160 (0xA0)
    Format : PCM
    Format settings, Endianness : Big
    Format settings, Sign : Signed
    Muxing mode : DVD-Video
    Duration : 3 min 45 s
    Bit rate mode : Constant
    Bit rate : 1 536 kb/s
    Channel(s) : 2 channels
    Sampling rate : 48.0 kHz
    Bit depth : 16 bits
    Stream size : 41.4 MiB (26%)

    Hidden Content:
    You must either reply or click 'Like' to see the hidden information contained here.
     
    Last edited: Apr 13, 2018
    revilo18, teebee, Jb3nj-JB and 7 others like this.
  2. Loading...


  3. multimediafm

    multimediafm Well-Known Member Donor

    Joined:
    Mar 27, 2014
    Messages:
    13,568
    Likes Received:
    1,063
  4. silentnight247

    silentnight247 Member

    Joined:
    Jun 2, 2016
    Messages:
    162
    Likes Received:
    5
  5. toonbbv

    toonbbv Well-Known Member

    Joined:
    Dec 11, 2013
    Messages:
    2,289
    Likes Received:
    108
    thank you
     
  6. pinky

    pinky Well-Known Member

    Joined:
    Jun 27, 2015
    Messages:
    1,585
    Likes Received:
    56
    thank you :)
     
  7. dinhotwain

    dinhotwain Well-Known Member

    Joined:
    Jan 1, 2015
    Messages:
    1,238
    Likes Received:
    143
  8. exterminador

    exterminador Well-Known Member

    Joined:
    Jul 3, 2016
    Messages:
    2,562
    Likes Received:
    213
  9. Amauri Luiz

    Amauri Luiz Well-Known Member

    Joined:
    Jan 14, 2014
    Messages:
    2,033
    Likes Received:
    84
  10. Nefertiti

    Nefertiti Member

    Joined:
    Mar 3, 2015
    Messages:
    184
    Likes Received:
    6
    Thanks for sharing!
     
  11. jloismyhq

    jloismyhq Member

    Joined:
    Jun 16, 2017
    Messages:
    172
    Likes Received:
    15
    thanks
     
  12. rkgmade

    rkgmade Well-Known Member

    Joined:
    Sep 29, 2016
    Messages:
    1,620
    Likes Received:
    84
    thgvhhjjhbjhbjhb
     
  13. amorafodasepiroks

    amorafodasepiroks Member

    Joined:
    Apr 14, 2018
    Messages:
    264
    Likes Received:
    11
  14. mjh13578

    mjh13578 Member

    Joined:
    Dec 7, 2013
    Messages:
    438
    Likes Received:
    14
    Thank you!:victory:
     
  15. vikakotova

    vikakotova Member

    Joined:
    May 31, 2017
    Messages:
    126
    Likes Received:
    10
  16. fernanassis

    fernanassis Active Member

    Joined:
    Sep 8, 2014
    Messages:
    547
    Likes Received:
    36
  17. Lisa-20112011

    Lisa-20112011 Active Member

    Joined:
    Jun 25, 2018
    Messages:
    1,047
    Likes Received:
    18