HDTV Jennifer Lopez - I Luh Ya Papi (The PowerHouse 17-05-2014) 1080p

Discussion in 'HD Live Performances' started by hanshermann, Feb 12, 2018.

  1. hanshermann

    hanshermann Well-Known Member Uploader

    Joined:
    Aug 24, 2016
    Messages:
    6,951
    Likes Received:
    11,154
    [​IMG]

    Jennifer Lopez - I Luh Ya Papi (The PowerHouse 17-05-2014) 1080p

    Code:
    General
    Complete name               : Jennifer Lopez - I Luh Ya Papi (The PowerHouse 17-05-2014).mp4
    Format                      : MPEG-4
    Format profile              : Base Media
    Codec ID                    : isom (isom/iso2/avc1/mp41)
    File size                   : 108 MiB
    Duration                    : 3 min 36 s
    Overall bit rate            : 4 178 kb/s
    Writing application         : Lavf55.19.102
    
    Video
    ID                          : 1
    Format                      : AVC
    Format/Info                 : Advanced Video Codec
    Format profile              : High@L4
    Format settings, CABAC      : Yes
    Format settings, ReFrames   : 2 frames
    Codec ID                    : avc1
    Codec ID/Info               : Advanced Video Coding
    Duration                    : 3 min 36 s
    Bit rate                    : 4 046 kb/s
    Width                       : 1 920 pixels
    Height                      : 1 080 pixels
    Display aspect ratio        : 16:9
    Frame rate mode             : Variable
    Frame rate                  : 23.976 (24000/1001) FPS
    Minimum frame rate          : 23.974 FPS
    Maximum frame rate          : 23.981 FPS
    Color space                 : YUV
    Chroma subsampling          : 4:2:0
    Bit depth                   : 8 bits
    Scan type                   : Progressive
    Bits/(Pixel*Frame)          : 0.081
    Stream size                 : 105 MiB (97%)
    
    Audio
    ID                          : 2
    Format                      : AAC
    Format/Info                 : Advanced Audio Codec
    Format profile              : LC
    Codec ID                    : 40
    Duration                    : 3 min 36 s
    Bit rate mode               : Constant
    Bit rate                    : 126 kb/s
    Channel(s)                  : 2 channels
    Channel positions           : Front: L R
    Sampling rate               : 44.1 kHz
    Frame rate                  : 43.066 FPS (1024 spf)
    Compression mode            : Lossy
    Stream size                 : 3.24 MiB (3%)
    Default                     : Yes
    Alternate group             : 1
    
    Hidden Content:
    You must either reply or click 'Like' to see the hidden information contained here.
     
    Last edited: Apr 13, 2018
  2. Loading...


  3. dimafanasjev

    dimafanasjev Member

    Joined:
    Oct 6, 2016
    Messages:
    190
    Likes Received:
    23
  4. Adriano Everton

    Adriano Everton Well-Known Member

    Joined:
    Aug 25, 2014
    Messages:
    1,712
    Likes Received:
    183
  5. Romana

    Romana Active Member

    Joined:
    Oct 26, 2013
    Messages:
    571
    Likes Received:
    92
    thank you very much!
     
  6. tf135

    tf135 Well-Known Member

    Joined:
    Nov 14, 2014
    Messages:
    3,268
    Likes Received:
    194
    thanks
     
  7. Pedro Correia

    Pedro Correia Well-Known Member

    Joined:
    Apr 17, 2014
    Messages:
    1,323
    Likes Received:
    139
    Thank you so much!
     
  8. Causeislae

    Causeislae Active Member

    Joined:
    Jul 9, 2017
    Messages:
    477
    Likes Received:
    38
    Thank you but can you share the whole performance please?
     
  9. multimediafm

    multimediafm Well-Known Member Donor

    Joined:
    Mar 27, 2014
    Messages:
    13,139
    Likes Received:
    1,045
  10. frisby

    frisby Well-Known Member

    Joined:
    Nov 21, 2015
    Messages:
    1,548
    Likes Received:
    134
    thanks
     
  11. silentnight247

    silentnight247 Member

    Joined:
    Jun 2, 2016
    Messages:
    162
    Likes Received:
    5
  12. majkimalek

    majkimalek Member

    Joined:
    Jun 12, 2016
    Messages:
    154
    Likes Received:
    18
  13. mcslimshady

    mcslimshady Well-Known Member

    Joined:
    Jun 20, 2016
    Messages:
    1,902
    Likes Received:
    49
  14. rachd2

    rachd2 Member

    Joined:
    Jan 28, 2015
    Messages:
    39
    Likes Received:
    6
    very good thanks
     
  15. Maura

    Maura Well-Known Member

    Joined:
    Apr 7, 2014
    Messages:
    3,139
    Likes Received:
    101
    thanks
     
  16. ImLoser

    ImLoser Well-Known Member

    Joined:
    May 12, 2016
    Messages:
    2,048
    Likes Received:
    90
    thanks
     
  17. Pavulon

    Pavulon Well-Known Member Donor

    Joined:
    Mar 22, 2016
    Messages:
    4,540
    Likes Received:
    956
    thank you
     
  18. rhea

    rhea Well-Known Member

    Joined:
    Jan 6, 2014
    Messages:
    8,083
    Likes Received:
    1,113
    thanks
     
  19. pinky

    pinky Well-Known Member

    Joined:
    Jun 27, 2015
    Messages:
    1,543
    Likes Received:
    54
    thank you :)
     
  20. John

    John Member

    Joined:
    Oct 30, 2013
    Messages:
    501
    Likes Received:
    5
    Thanks
     
  21. Valdo

    Valdo Member

    Joined:
    May 18, 2015
    Messages:
    280
    Likes Received:
    14
    thank you