SDTV Jennifer Lopez - I´m Real Remix ft. Ja Rule (Live MTV VMA 2001)

Discussion in 'SD Live Performances' started by hanshermann, Feb 12, 2018.

  1. hanshermann

    hanshermann Well-Known Member Uploader

    Joined:
    Aug 24, 2016
    Messages:
    6,951
    Likes Received:
    11,154
    [​IMG]

    Jennifer Lopez - I´m Real Remix ft. Ja Rule (Live MTV VMA 2001)

    General
    Complete name : Jennifer Lopez - I_m_Real_Remix___Live_MTV_VMA_2001_ft.Ja_Rule_.mpg
    Format : MPEG-PS
    File size : 111 MiB
    Duration : 5 min 36 s
    Overall bit rate mode : Variable
    Overall bit rate : 2 764 kb/s
    Writing library : encoded by TMPGEnc b12a

    Video
    ID : 224 (0xE0)
    Format : MPEG Video
    Format version : Version 2
    Format profile : Main@Main
    Format settings, BVOP : Yes
    Format settings, Matrix : Custom
    Format settings, GOP : M=3, N=18
    Duration : 5 min 36 s
    Bit rate mode : Variable
    Bit rate : 2 485 kb/s
    Maximum bit rate : 2 520 kb/s
    Width : 480 pixels
    Height : 576 pixels
    Display aspect ratio : 4:3
    Frame rate : 25.000 FPS
    Standard : PAL
    Color space : YUV
    Chroma subsampling : 4:2:0
    Bit depth : 8 bits
    Scan type : Progressive
    Compression mode : Lossy
    Bits/(Pixel*Frame) : 0.359
    Time code of first frame : 00:00:00:00
    Time code source : Group of pictures header
    GOP, Open/Closed : Open
    GOP, Open/Closed of first f : Closed
    Stream size : 99.7 MiB (90%)
    Writing library : TMPGEnc b12a
    Color primaries : BT.601 PAL
    Transfer characteristics : BT.470 System B, BT.470 System G
    Matrix coefficients : BT.601

    Audio
    ID : 192 (0xC0)
    Format : MPEG Audio
    Format version : Version 1
    Format profile : Layer 2
    Duration : 5 min 36 s
    Bit rate mode : Constant
    Bit rate : 224 kb/s
    Channel(s) : 2 channels
    Sampling rate : 44.1 kHz
    Compression mode : Lossy
    Stream size : 8.99 MiB (8%)

    Hidden Content:
    You must either reply or click 'Like' to see the hidden information contained here.
     
    Last edited: Apr 13, 2018
  2. Loading...


  3. Cadu

    Cadu Member

    Joined:
    Feb 1, 2016
    Messages:
    263
    Likes Received:
    19
    thank you
     
  4. dzenailyjohn

    dzenailyjohn Member

    Joined:
    Oct 21, 2015
    Messages:
    268
    Likes Received:
    17
    thank you
     
  5. multimediafm

    multimediafm Well-Known Member Donor

    Joined:
    Mar 27, 2014
    Messages:
    13,139
    Likes Received:
    1,045
  6. luismolinanyc

    luismolinanyc Active Member

    Joined:
    May 17, 2016
    Messages:
    954
    Likes Received:
    35
    thnxxx!!!!
     
  7. silentnight247

    silentnight247 Member

    Joined:
    Jun 2, 2016
    Messages:
    162
    Likes Received:
    5
  8. Maura

    Maura Well-Known Member

    Joined:
    Apr 7, 2014
    Messages:
    3,139
    Likes Received:
    101
    Thank you
     
  9. dinhotwain

    dinhotwain Well-Known Member

    Joined:
    Jan 1, 2015
    Messages:
    1,166
    Likes Received:
    127
  10. toonbbv

    toonbbv Well-Known Member

    Joined:
    Dec 11, 2013
    Messages:
    2,203
    Likes Received:
    105
    thank you
     
  11. peny20

    peny20 Well-Known Member

    Joined:
    Oct 23, 2013
    Messages:
    1,877
    Likes Received:
    54
    thanks
     
  12. Causeislae

    Causeislae Active Member

    Joined:
    Jul 9, 2017
    Messages:
    477
    Likes Received:
    38
    Thank y
    ou
     
  13. Luis Almeida

    Luis Almeida Well-Known Member

    Joined:
    Feb 4, 2015
    Messages:
    1,002
    Likes Received:
    60
    thank you
     
  14. kowalski2016

    kowalski2016 Active Member

    Joined:
    May 18, 2016
    Messages:
    327
    Likes Received:
    36
    thank you!
     
  15. jloismyhq

    jloismyhq Member

    Joined:
    Jun 16, 2017
    Messages:
    168
    Likes Received:
    15
    thanks
     
  16. mvlmoraes

    mvlmoraes Well-Known Member Donor

    Joined:
    Nov 22, 2013
    Messages:
    2,852
    Likes Received:
    388
    thanks
     
  17. asexycowboy

    asexycowboy Active Member

    Joined:
    Apr 6, 2015
    Messages:
    621
    Likes Received:
    45
    Thank you))
     
  18. lugurod

    lugurod Member

    Joined:
    Oct 4, 2014
    Messages:
    169
    Likes Received:
    9
    super
     
  19. Lisa-20112011

    Lisa-20112011 Member

    Joined:
    Jun 25, 2018
    Messages:
    978
    Likes Received:
    15
    thank you