Jennifer Lopez - Get Right (NRJ Awards 2005)

Discussion in 'SD Live Performances' started by miguelmr87, Dec 1, 2017.

  1. miguelmr87

    miguelmr87 Well-Known Member

    Joined:
    Dec 20, 2013
    Messages:
    1,300
    Likes Received:
    291
    [​IMG]

    General
    Complete name : F:\MY BOOK\VIDEOS\discos que se perdieron\Jennifer Lopez\Jennifer Lopez - Get Right (Nrj Music Awards 2005).mpg
    Format : MPEG-PS
    File size : 200 MiB
    Duration : 4 min 26 s
    Overall bit rate mode : Variable
    Overall bit rate : 6 281 kb/s

    Video
    ID : 224 (0xE0)
    Format : MPEG Video
    Format version : Version 2
    Format profile : Main@Main
    Format settings : CustomMatrix / BVOP
    Format settings, BVOP : Yes
    Format settings, Matrix : Custom
    Format settings, GOP : Variable
    Format settings, picture structure : Frame
    Duration : 4 min 26 s
    Bit rate mode : Variable
    Bit rate : 5 900 kb/s
    Maximum bit rate : 15.0 Mb/s
    Width : 720 pixels
    Height : 576 pixels
    Display aspect ratio : 4:3
    Frame rate : 25.000 FPS
    Standard : PAL
    Color space : YUV
    Chroma subsampling : 4:2:0
    Bit depth : 8 bits
    Scan type : Interlaced
    Scan order : Top Field First
    Compression mode : Lossy
    Bits/(Pixel*Frame) : 0.569
    Time code of first frame : 00:00:00:00
    Time code source : Group of pictures header
    GOP, Open/Closed : Open
    GOP, Open/Closed of first frame : Closed
    Stream size : 187 MiB (94%)

    Audio
    ID : 192 (0xC0)
    Format : MPEG Audio
    Format version : Version 1
    Format profile : Layer 2
    Duration : 4 min 26 s
    Bit rate mode : Constant
    Bit rate : 256 kb/s
    Channel(s) : 2 channels
    Sampling rate : 48.0 kHz
    Frame rate : 41.667 FPS (1152 SPF)
    Compression mode : Lossy
    Stream size : 8.14 MiB (4%)

    Credits Capper must be mykylie
    No pass host: cloudmail.ru

    Hidden Content:
    You must reply before you can see the hidden data contained here.
    new link
     
    Last edited: Dec 12, 2017
    Humberto, Causeislae, lim and 5 others like this.
  2. Loading...


  3. BetaKsi

    BetaKsi Well-Known Member

    Joined:
    Oct 18, 2015
    Messages:
    2,041
    Likes Received:
    561
    Thank you))
     
  4. John1995

    John1995 Member

    Joined:
    Dec 7, 2014
    Messages:
    41
    Likes Received:
    0
    thnxxxxxx
     
  5. jack_black

    jack_black Well-Known Member

    Joined:
    Feb 16, 2014
    Messages:
    998
    Likes Received:
    831
    Thanks so much!
     
  6. TrendMusic

    TrendMusic Well-Known Member

    Joined:
    Oct 7, 2013
    Messages:
    1,708
    Likes Received:
    159
  7. hanshermann

    hanshermann Well-Known Member Uploader

    Joined:
    Aug 24, 2016
    Messages:
    6,951
    Likes Received:
    11,167
    wahts taht
     
  8. migsou

    migsou Member

    Joined:
    Oct 2, 2014
    Messages:
    510
    Likes Received:
    19
    thanx
     
  9. jloismyhq

    jloismyhq Member

    Joined:
    Jun 16, 2017
    Messages:
    168
    Likes Received:
    15
    Thanks
     
  10. multimediafm

    multimediafm Well-Known Member Donor

    Joined:
    Mar 27, 2014
    Messages:
    13,139
    Likes Received:
    1,045
  11. dimafanasjev

    dimafanasjev Member

    Joined:
    Oct 6, 2016
    Messages:
    190
    Likes Received:
    23
  12. exterminador

    exterminador Well-Known Member

    Joined:
    Jul 3, 2016
    Messages:
    2,403
    Likes Received:
    208
  13. golftae

    golftae Well-Known Member

    Joined:
    May 14, 2014
    Messages:
    1,482
    Likes Received:
    773
    Thank you
     
  14. chrisjlover2

    chrisjlover2 Member

    Joined:
    Oct 25, 2015
    Messages:
    202
    Likes Received:
    19
    Thanks
     
  15. kyros

    kyros Member

    Joined:
    Oct 21, 2015
    Messages:
    571
    Likes Received:
    22
    thanks
     
  16. jose luis

    jose luis Member

    Joined:
    Nov 25, 2013
    Messages:
    391
    Likes Received:
    20
    thanks ♥
     
  17. 3veronicas

    3veronicas Well-Known Member

    Joined:
    Aug 26, 2016
    Messages:
    1,807
    Likes Received:
    94
    Thanks!
     
  18. teflabyte

    teflabyte Well-Known Member

    Joined:
    Aug 5, 2017
    Messages:
    1,086
    Likes Received:
    35
  19. pinky

    pinky Well-Known Member

    Joined:
    Jun 27, 2015
    Messages:
    1,543
    Likes Received:
    54
    thank you :)
     
  20. GuruPitka

    GuruPitka Member

    Joined:
    Apr 3, 2014
    Messages:
    420
    Likes Received:
    13
  21. toonbbv

    toonbbv Well-Known Member

    Joined:
    Dec 11, 2013
    Messages:
    2,205
    Likes Received:
    105
    thank you