Jennifer Lopez - Get Right (NRJ Awards 2005)

Discussion in 'SD Live Performances' started by miguelmr87, Dec 1, 2017.

  1. miguelmr87

    miguelmr87 Well-Known Member

    Joined:
    Dec 20, 2013
    Messages:
    1,998
    Likes Received:
    406
    [​IMG]

    General
    Complete name : F:\MY BOOK\VIDEOS\discos que se perdieron\Jennifer Lopez\Jennifer Lopez - Get Right (Nrj Music Awards 2005).mpg
    Format : MPEG-PS
    File size : 200 MiB
    Duration : 4 min 26 s
    Overall bit rate mode : Variable
    Overall bit rate : 6 281 kb/s

    Video
    ID : 224 (0xE0)
    Format : MPEG Video
    Format version : Version 2
    Format profile : Main@Main
    Format settings : CustomMatrix / BVOP
    Format settings, BVOP : Yes
    Format settings, Matrix : Custom
    Format settings, GOP : Variable
    Format settings, picture structure : Frame
    Duration : 4 min 26 s
    Bit rate mode : Variable
    Bit rate : 5 900 kb/s
    Maximum bit rate : 15.0 Mb/s
    Width : 720 pixels
    Height : 576 pixels
    Display aspect ratio : 4:3
    Frame rate : 25.000 FPS
    Standard : PAL
    Color space : YUV
    Chroma subsampling : 4:2:0
    Bit depth : 8 bits
    Scan type : Interlaced
    Scan order : Top Field First
    Compression mode : Lossy
    Bits/(Pixel*Frame) : 0.569
    Time code of first frame : 00:00:00:00
    Time code source : Group of pictures header
    GOP, Open/Closed : Open
    GOP, Open/Closed of first frame : Closed
    Stream size : 187 MiB (94%)

    Audio
    ID : 192 (0xC0)
    Format : MPEG Audio
    Format version : Version 1
    Format profile : Layer 2
    Duration : 4 min 26 s
    Bit rate mode : Constant
    Bit rate : 256 kb/s
    Channel(s) : 2 channels
    Sampling rate : 48.0 kHz
    Frame rate : 41.667 FPS (1152 SPF)
    Compression mode : Lossy
    Stream size : 8.14 MiB (4%)

    Credits Capper must be mykylie
    No pass host: cloudmail.ru

    Hidden Content:
    You must reply before you can see the hidden data contained here.
    new link
     
    Last edited: Dec 12, 2017
  2. Loading...


  3. BetaKsi

    BetaKsi Well-Known Member

    Joined:
    Oct 18, 2015
    Messages:
    2,487
    Likes Received:
    628
    Thank you))
     
  4. John1995

    John1995 Member

    Joined:
    Dec 7, 2014
    Messages:
    63
    Likes Received:
    2
    thnxxxxxx
     
  5. jack_black

    jack_black Well-Known Member

    Joined:
    Feb 16, 2014
    Messages:
    1,106
    Likes Received:
    914
    Thanks so much!
     
  6. TrendMusic

    TrendMusic Well-Known Member

    Joined:
    Oct 7, 2013
    Messages:
    1,887
    Likes Received:
    181
  7. hanshermann

    hanshermann Well-Known Member Uploader

    Joined:
    Aug 24, 2016
    Messages:
    7,599
    Likes Received:
    14,960
    wahts taht
     
  8. migsou

    migsou Active Member

    Joined:
    Oct 2, 2014
    Messages:
    573
    Likes Received:
    56
    thanx
     
  9. jloismyhq

    jloismyhq Member

    Joined:
    Jun 16, 2017
    Messages:
    172
    Likes Received:
    15
    Thanks
     
  10. multimediafm

    multimediafm Well-Known Member Donor

    Joined:
    Mar 27, 2014
    Messages:
    14,143
    Likes Received:
    1,116
  11. dimafanasjev

    dimafanasjev Active Member

    Joined:
    Oct 6, 2016
    Messages:
    197
    Likes Received:
    27
  12. exterminador

    exterminador Well-Known Member

    Joined:
    Jul 3, 2016
    Messages:
    2,673
    Likes Received:
    232
  13. golftae

    golftae Well-Known Member

    Joined:
    May 14, 2014
    Messages:
    1,700
    Likes Received:
    1,006
    Thank you
     
  14. chrisjlover2

    chrisjlover2 Active Member

    Joined:
    Oct 25, 2015
    Messages:
    236
    Likes Received:
    53
    Thanks
     
  15. kyros

    kyros Active Member

    Joined:
    Oct 21, 2015
    Messages:
    721
    Likes Received:
    31
    thanks
     
  16. jose luis

    jose luis Member

    Joined:
    Nov 25, 2013
    Messages:
    415
    Likes Received:
    21
    thanks ♥
     
  17. 3veronicas

    3veronicas Well-Known Member

    Joined:
    Aug 26, 2016
    Messages:
    2,240
    Likes Received:
    121
    Thanks!
     
  18. teflabyte

    teflabyte Well-Known Member

    Joined:
    Aug 5, 2017
    Messages:
    1,084
    Likes Received:
    35
  19. pinky

    pinky Well-Known Member

    Joined:
    Jun 27, 2015
    Messages:
    1,631
    Likes Received:
    63
    thank you :)
     
  20. GuruPitka

    GuruPitka Active Member

    Joined:
    Apr 3, 2014
    Messages:
    1,089
    Likes Received:
    15
  21. toonbbv

    toonbbv Well-Known Member

    Joined:
    Dec 11, 2013
    Messages:
    2,323
    Likes Received:
    111
    thank you