Jennifer Lopez ft. Lil Wayne - I'm Into You (NBC) 1080i [DroneSmelter]

Discussion in 'NBC' started by DroneSmelter, Jan 9, 2014.

  1. DroneSmelter

    DroneSmelter Member Capper

    Joined:
    Dec 31, 2013
    Messages:
    47
    Likes Received:
    108
    [​IMG]
    Code:
    Format                                  : MPEG-TS
    File size                                : 428 MiB
    Duration                                : 3mn 47s
    Overall bit rate mode                    : Constant
    Overall bit rate                        : 15.8 Mbps
    
    Format                                  : MPEG Video
    Format version                          : Version 2
    Format profile                          : [email protected]
    Format settings, BVOP                    : Yes
    Format settings, Matrix                  : Custom
    Format settings, GOP                    : Variable
    Codec ID                                : 2
    Duration                                : 3mn 47s
    Bit rate                                : 14.6 Mbps
    Maximum bit rate                        : 15.0 Mbps
    Width                                    : 1 920 pixels
    Height                                  : 1 088 pixels
    Display aspect ratio                    : 16:9
    Frame rate                              : 29.970 fps
    Standard                                : Component
    Color space                              : YUV
    Chroma subsampling                      : 4:2:0
    Bit depth                                : 8 bits
    Scan type                                : Interlaced
    Scan order                              : Top Field First
    Compression mode                        : Lossy
    Bits/(Pixel*Frame)                      : 0.233
    Time code of first frame                : 00:00:00;00
    Time code source                        : Group of pictures header
    Stream size                              : 397 MiB (93%)
    
    Format                                  : AC-3
    Format/Info                              : Audio Coding 3
    Mode extension                          : CM (complete main)
    Format settings, Endianness              : Big
    Codec ID                                : 129
    Duration                                : 3mn 47s
    Bit rate mode                            : Constant
    Bit rate                                : 384 Kbps
    Channel(s)                              : 6 channels
    Channel positions                        : Front: L C R, Side: L R, LFE
    Sampling rate                            : 48.0 KHz
    Bit depth                                : 16 bits
    Compression mode                        : Lossy
    Delay relative to video                  : -33ms
    Stream size                              : 10.4 MiB (2%)
    Links:
    Hidden Content:
    You must reply before you can see the hidden data contained here.
     
    Last edited: Jan 25, 2014
    chrisjlover2, MaggieS, Ari10i and 3 others like this.
  2. rgf72k

    rgf72k Founder Staff Member AdMiN

    Joined:
    Oct 1, 2013
    Messages:
    1,020
    Likes Received:
    15,476
    nice!, thank you! :)
     
  3. alex

    alex Well-Known Member

    Joined:
    Nov 21, 2013
    Messages:
    4,552
    Likes Received:
    358
    thanks
     
  4. Escalade1080p

    Escalade1080p Member

    Joined:
    Nov 20, 2013
    Messages:
    516
    Likes Received:
    15
    Thanks a lot!
     
  5. Joseph

    Joseph Active Member

    Joined:
    Dec 10, 2013
    Messages:
    746
    Likes Received:
    167
    thanks! :D
     
  6. Binh

    Binh Member

    Joined:
    Nov 18, 2013
    Messages:
    86
    Likes Received:
    1
    thanks
     
  7. pablo palormo

    pablo palormo Member

    Joined:
    Oct 27, 2013
    Messages:
    177
    Likes Received:
    2
    Thank You! :cool:
     
  8. Ari10i

    Ari10i Active Member

    Joined:
    Oct 7, 2013
    Messages:
    96
    Likes Received:
    45
    Thanks!
     
  9. lucash

    lucash Member

    Joined:
    Nov 25, 2013
    Messages:
    213
    Likes Received:
    14
    thanks
     
  10. sirbender

    sirbender New Member

    Joined:
    Jan 15, 2014
    Messages:
    4
    Likes Received:
    0
    thanks!
     
  11. faizan

    faizan Member

    Joined:
    Mar 9, 2014
    Messages:
    44
    Likes Received:
    0
  12. Exim

    Exim New Member

    Joined:
    Mar 10, 2014
    Messages:
    12
    Likes Received:
    0
    Thank You
     
  13. dangtungson

    dangtungson Member

    Joined:
    Feb 22, 2014
    Messages:
    209
    Likes Received:
    15
  14. MCTR

    MCTR Active Member

    Joined:
    Feb 23, 2014
    Messages:
    295
    Likes Received:
    40
    thanks
     
  15. mmbento

    mmbento Member

    Joined:
    Jan 28, 2014
    Messages:
    289
    Likes Received:
    8
    Thanks
     
  16. 江雨燃双鱼

    江雨燃双鱼 Active Member

    Joined:
    Apr 5, 2014
    Messages:
    613
    Likes Received:
    38
  17. GuruPitka

    GuruPitka Member

    Joined:
    Apr 3, 2014
    Messages:
    350
    Likes Received:
    6
    thanks for J.Lo
     
  18. amir

    amir Member

    Joined:
    Nov 30, 2013
    Messages:
    86
    Likes Received:
    7
     
  19. amir

    amir Member

    Joined:
    Nov 30, 2013
    Messages:
    86
    Likes Received:
    7
    Thanks so much!
     
  20. GuruPitka

    GuruPitka Member

    Joined:
    Apr 3, 2014
    Messages:
    350
    Likes Received:
    6
    thank you very much