CC Jennifer Lopez Feat. Pitbull - Dance Again (MUCHHD-1080i-DD5.1-AmazonBoy) [CC]

Discussion in 'MUCH HD' started by DETOX, Jul 6, 2015.

  1. DETOX

    DETOX Well-Known Member V . I . P. Uploader

    Joined:
    Feb 20, 2014
    Messages:
    2,843
    Likes Received:
    16,779

    [​IMG]


    Format : MPEG-TS
    File size : 477 MiB
    Duration : 4mn 21s
    Overall bit rate mode : Variable
    Overall bit rate : 15.3 Mbps
    Movie name : New Music Videos
    Law rating : E

    Video
    ID : 412 (0x19C)
    Menu ID : 1 (0x1)
    Format : MPEG Video
    Format version : Version 2
    Format profile : [email protected]
    Format settings, BVOP : Yes
    Format settings, Matrix : Custom
    Format settings, GOP : Variable
    Format settings, picture structure : Frame
    Codec ID : 2
    Duration : 4mn 21s
    Bit rate mode : Variable
    Bit rate : 14.2 Mbps
    Maximum bit rate : 20.0 Mbps
    Width : 1 920 pixels
    Height : 1 080 pixels
    Display aspect ratio : 16:9
    Frame rate : 29.970 fps
    Color space : YUV
    Chroma subsampling : 4:2:0
    Bit depth : 8 bits
    Scan type : Interlaced
    Scan order : Top Field First
    Compression mode : Lossy
    Bits/(Pixel*Frame) : 0.228
    Time code of first frame : 00:00:00;00
    Time code source : Group of pictures header
    Stream size : 441 MiB (92%)

    Audio
    ID : 413 (0x19D)
    Menu ID : 1 (0x1)
    Format : AC-3
    Format/Info : Audio Coding 3
    Mode extension : CM (complete main)
    Format settings, Endianness : Big
    Codec ID : 129
    Duration : 4mn 21s
    Bit rate mode : Constant
    Bit rate : 384 Kbps
    Channel(s) : 6 channels
    Channel positions : Front: L C R, Side: L R, LFE
    Sampling rate : 48.0 KHz
    Bit depth : 16 bits
    Compression mode : Lossy
    Stream size : 12.0 MiB (3%)
    Language : English

    Text #1
    ID : 412 (0x19C)-CC1
    Menu ID : 1 (0x1)
    Format : EIA-608
    Muxing mode : A/53 / DTVCC Transport
    Muxing mode, more info : Muxed in Video #1
    Duration : 4mn 21s
    Bit rate mode : Constant
    Stream size : 0.00 Byte (0%)

    Text #2
    ID : 412 (0x19C)-1
    Menu ID : 1 (0x1)
    Format : EIA-708
    Muxing mode : A/53 / DTVCC Transport
    Muxing mode, more info : Muxed in Video #1
    Duration : 4mn 21s
    Bit rate mode : Constant
    Stream size : 0.00 Byte (0%)

    Hidden Content:
    You must reply before you can see the hidden data contained here.
     
    Last edited by a moderator: Oct 22, 2015
    777josem likes this.
  2. 777josem

    777josem Well-Known Member Uploader

    Joined:
    Sep 1, 2014
    Messages:
    2,926
    Likes Received:
    1,563
    :happy:Thank you so much!
     
  3. koko_love

    koko_love Member

    Joined:
    Jun 3, 2015
    Messages:
    381
    Likes Received:
    12
    Thank you :)
     
  4. Regis

    Regis Well-Known Member

    Joined:
    Jul 14, 2015
    Messages:
    1,027
    Likes Received:
    25
    :happy:Thank you so much!
     
  5. mike gunen

    mike gunen Member

    Joined:
    Nov 9, 2013
    Messages:
    715
    Likes Received:
    15
    Thank you
     
  6. Puchacz93

    Puchacz93 Well-Known Member

    Joined:
    Feb 4, 2015
    Messages:
    1,206
    Likes Received:
    701
    Thank you.
     
  7. jloveres

    jloveres Active Member

    Joined:
    Jun 14, 2015
    Messages:
    335
    Likes Received:
    66
    Thanks!
     
  8. nolynexor88

    nolynexor88 Active Member

    Joined:
    Sep 29, 2015
    Messages:
    966
    Likes Received:
    37
     
  9. RUS22877773

    RUS22877773 Member

    Joined:
    Jan 7, 2016
    Messages:
    101
    Likes Received:
    1
    Thank you
     
  10. Pavulon

    Pavulon Well-Known Member

    Joined:
    Mar 22, 2016
    Messages:
    1,599
    Likes Received:
    94
    thanks
     
  11. tapions

    tapions Active Member

    Joined:
    Aug 30, 2016
    Messages:
    833
    Likes Received:
    60
    gracias
     
  12. revilo18

    revilo18 Well-Known Member

    Joined:
    May 26, 2016
    Messages:
    1,513
    Likes Received:
    65
    THAN
    KKKKKKKKKKKKKKKK
     
  13. hanshermann

    hanshermann Active Member

    Joined:
    Aug 24, 2016
    Messages:
    3,530
    Likes Received:
    23
    wahts taht
     
  14. DiVenturas

    DiVenturas Active Member

    Joined:
    Oct 21, 2015
    Messages:
    1,219
    Likes Received:
    17