Jennifer Lopez - El Anillo MTVHD 1080i HDTV DD2.0 H.264 CELOBRAZiL-HDMania

Discussion in 'MTV HD' started by CELOBRAZiL, Jun 7, 2018.

  1. CELOBRAZiL

    CELOBRAZiL Well-Known Member Capper V . I . P. Donor

    Joined:
    Oct 2, 2013
    Messages:
    9,099
    Likes Received:
    34,157
    Jennifer Lopez - El Anillo MTVHD 1080i HDTV DD2.0 H.264 CELOBRAZiL-HDMania

    [​IMG]



    Format : MPEG-TS
    File size : 203 MiB
    Duration : 4 min 17 s
    Overall bit rate mode : Variable
    Overall bit rate : 6 626 kb/s

    Video
    ID : 2760 (0xAC8)
    Menu ID : 5040 (0x13B0)
    Format : AVC
    Format/Info : Advanced Video Codec
    Format profile : High@L4
    Format settings : CABAC / 3 Ref Frames
    Format settings, CABAC : Yes
    Format settings, RefFrames : 3 frames
    Codec ID : 27
    Duration : 4 min 17 s
    Bit rate : 6 105 kb/s
    Width : 1 920 pixels
    Height : 1 080 pixels
    Display aspect ratio : 16:9
    Frame rate : 29.970 (30000/1001) FPS
    Color space : YUV
    Chroma subsampling : 4:2:0
    Bit depth : 8 bits
    Scan type : MBAFF
    Scan type, store method : Interleaved fields
    Scan order : Top Field First
    Bits/(Pixel*Frame) : 0.098
    Stream size : 187 MiB (92%)

    Audio
    ID : 2724 (0xAA4)
    Menu ID : 5040 (0x13B0)
    Format : AC-3
    Format/Info : Audio Coding 3
    Codec ID : 129
    Duration : 4 min 17 s
    Bit rate mode : Constant
    Bit rate : 192 kb/s
    Channel(s) : 2 channels
    Channel positions : Front: L R
    Sampling rate : 48.0 kHz
    Frame rate : 31.250 FPS (1536 SPF)
    Bit depth : 16 bits
    Compression mode : Lossy
    Stream size : 5.89 MiB (3%)
    Language : English
    Service kind : Complete Main

    Text
    ID : 2760 (0xAC8)-CC4
    Menu ID : 5040 (0x13B0)
    Format : EIA-608
    Muxing mode : SCTE 128 / DTVCC Transport
    Muxing mode, more info : Muxed in Video #1
    Duration : 4 min 17 s
    Bit rate mode : Constant
    Stream size : 0.00 Byte (0%)
    CaptionServiceName : CC4


    Link(s):
    Hidden Content:
    You must either reply or click 'Like' to see the hidden information contained here.
     
  2. Loading...


  3. CELOBRAZiL

    CELOBRAZiL Well-Known Member Capper V . I . P. Donor

    Joined:
    Oct 2, 2013
    Messages:
    9,099
    Likes Received:
    34,157
  4. rhea

    rhea Well-Known Member

    Joined:
    Jan 6, 2014
    Messages:
    11,084
    Likes Received:
    2,131
    thank you so much :)
     
    CELOBRAZiL likes this.
  5. rvden

    rvden Well-Known Member

    Joined:
    Apr 9, 2017
    Messages:
    952
    Likes Received:
    711
    Thank you!
     
    CELOBRAZiL likes this.
  6. makaveli7196

    makaveli7196 Member

    Joined:
    Sep 19, 2016
    Messages:
    40
    Likes Received:
    2
    thanks friends
     
    CELOBRAZiL likes this.
  7. akon111

    akon111 Well-Known Member

    Joined:
    Dec 29, 2015
    Messages:
    676
    Likes Received:
    419
    Good job
     
    CELOBRAZiL likes this.
  8. jayananda

    jayananda Well-Known Member

    Joined:
    Jan 14, 2015
    Messages:
    1,842
    Likes Received:
    441
    Thank You
     
    CELOBRAZiL likes this.
  9. Zatimi

    Zatimi Well-Known Member

    Joined:
    Aug 27, 2014
    Messages:
    1,080
    Likes Received:
    370
    Thanks celo
     
    CELOBRAZiL likes this.
  10. teflabyte

    teflabyte Well-Known Member

    Joined:
    Aug 5, 2017
    Messages:
    1,075
    Likes Received:
    38
    Thanks
     
    CELOBRAZiL likes this.
  11. skyman1996

    skyman1996 Member

    Joined:
    Jul 1, 2017
    Messages:
    206
    Likes Received:
    10
    THANKS MAN
     
    CELOBRAZiL likes this.