Jason Mraz - I'm Yours (MTVIdol-1080i-DD2.0)-Olgold

Discussion in 'MTV IDOL' started by Olgold, Apr 14, 2017.

  1. Olgold

    Olgold Well-Known Member Capper

    Joined:
    Aug 19, 2015
    Messages:
    436
    Likes Received:
    2,045
    Jason Mraz - I'm Yours
    [​IMG]
    General
    Format : MPEG-TS
    File size : 141 MiB
    Duration : 3 min 39 s
    Overall bit rate mode : Variable
    Overall bit rate : 5 379 kb/s

    Video
    Format : AVC
    Format/Info : Advanced Video Codec
    Format profile : High@L4
    Format settings, CABAC : Yes
    Format settings, ReFrames : 4 frames
    Duration : 3 min 39 s
    Bit rate : 4 919 kb/s
    Width : 1 920 pixels
    Height : 1 080 pixels
    Display aspect ratio : 16:9
    Frame rate : 25.000 FPS
    Standard : Component
    Color space : YUV
    Chroma subsampling : 4:2:0
    Bit depth : 8 bits
    Scan type : MBAFF
    Scan type, store method : Interleaved fields
    Scan order : Top Field First
    Bits/(Pixel*Frame) : 0.095
    Stream size : 129 MiB (91%)

    Audio
    Format : AC-3
    Format/Info : Audio Coding 3
    Mode extension : CM (complete main)
    Format settings, Endianness : Big
    Duration : 3 min 39 s
    Bit rate mode : Constant
    Bit rate : 192 kb/s
    Channel(s) : 2 channels
    Channel positions : Front: L R
    Sampling rate : 48.0 kHz
    Frame rate : 31.250 FPS (1536 spf)
    Compression mode : Lossy
    Delay relative to video : -4 ms
    Stream size : 5.03 MiB (4%)
    Password: Olgold

    Hidden Content:
    You must reply before you can see the hidden data contained here.
     
  2. Loading...


  3. Dreamer

    Dreamer Lana Del Slay V . I . P. Uploader

    Joined:
    Dec 4, 2014
    Messages:
    3,210
    Likes Received:
    10,969
    Thank you so much!
     
  4. CELOBRAZiL

    CELOBRAZiL Well-Known Member Capper V . I . P. Donor

    Joined:
    Oct 2, 2013
    Messages:
    9,699
    Likes Received:
    36,655
    Thank you so much! :)
     
  5. rhea

    rhea Well-Known Member

    Joined:
    Jan 6, 2014
    Messages:
    11,453
    Likes Received:
    2,198
    thanks
     
  6. brownbradpitt613

    brownbradpitt613 Active Member

    Joined:
    Sep 3, 2017
    Messages:
    755
    Likes Received:
    32
    love this!
     
  7. ildson

    ildson Active Member

    Joined:
    Nov 4, 2017
    Messages:
    510
    Likes Received:
    56
    thanks
     
  8. jsgh1983

    jsgh1983 Member

    Joined:
    Mar 30, 2018
    Messages:
    79
    Likes Received:
    6
    I really like it!
     
  9. jsgh1983

    jsgh1983 Member

    Joined:
    Mar 30, 2018
    Messages:
    79
    Likes Received:
    6
    Thank you!
     
  10. Liamjaco98

    Liamjaco98 New Member

    Joined:
    Feb 25, 2017
    Messages:
    6
    Likes Received:
    0
    Thanks
    [​IMG]
    General
    Format : MPEG-TS
    File size : 141 MiB
    Duration : 3 min 39 s
    Overall bit rate mode : Variable
    Overall bit rate : 5 379 kb/s

    Video
    Format : AVC
    Format/Info : Advanced Video Codec
    Format profile : High@L4
    Format settings, CABAC : Yes
    Format settings, ReFrames : 4 frames
    Duration : 3 min 39 s
    Bit rate : 4 919 kb/s
    Width : 1 920 pixels
    Height : 1 080 pixels
    Display aspect ratio : 16:9
    Frame rate : 25.000 FPS
    Standard : Component
    Color space : YUV
    Chroma subsampling : 4:2:0
    Bit depth : 8 bits
    Scan type : MBAFF
    Scan type, store method : Interleaved fields
    Scan order : Top Field First
    Bits/(Pixel*Frame) : 0.095
    Stream size : 129 MiB (91%)

    Audio
    Format : AC-3
    Format/Info : Audio Coding 3
    Mode extension : CM (complete main)
    Format settings, Endianness : Big
    Duration : 3 min 39 s
    Bit rate mode : Constant
    Bit rate : 192 kb/s
    Channel(s) : 2 channels
    Channel positions : Front: L R
    Sampling rate : 48.0 kHz
    Frame rate : 31.250 FPS (1536 spf)
    Compression mode : Lossy
    Delay relative to video : -4 ms
    Stream size : 5.03 MiB (4%)
    Password: Olgold

    ***Hidden content cannot be quoted.***[/QUOTE]
     
  11. Brytho

    Brytho Active Member

    Joined:
    Jan 31, 2019
    Messages:
    660
    Likes Received:
    31
    Member
     
  12. marvec141989

    marvec141989 Member

    Joined:
    Apr 6, 2019
    Messages:
    579
    Likes Received:
    18
  13. Malitaxd

    Malitaxd Active Member

    Joined:
    Jun 21, 2019
    Messages:
    583
    Likes Received:
    35
    ok gracias
     
  14. JSmoove

    JSmoove Member

    Joined:
    Nov 27, 2013
    Messages:
    101
    Likes Received:
    3
    thanks!
     
  15. Dj Torres

    Dj Torres Member

    Joined:
    Aug 9, 2020
    Messages:
    273
    Likes Received:
    8
    Thank you