Jason Derulo - Want To Want Me (MTVIDOL-1080i-DD2.0-Djodjara)-HDMania

Discussion in 'MTV IDOL' started by Djodjara, Apr 22, 2015.

  1. Djodjara

    Djodjara Gwen Fan Capper

    Joined:
    Sep 6, 2014
    Messages:
    784
    Likes Received:
    1,415
    Jason Derulo - Want To Want Me (MTV Idol-1080i-Djodjara)-HDMania

    [​IMG]
    [​IMG]

    General:
    ID : 1 (0x1)
    Format : MPEG-TS
    File size : 123 MiB
    Duration : 3mn 16s
    Overall bit rate mode : Variable
    Overall bit rate : 5 249 Kbps

    Video:
    ID : 310 (0x136)
    Menu ID : 1 (0x1)
    Format : AVC
    Format/Info : Advanced Video Codec
    Format profile : [email protected]
    Format settings, CABAC : Yes
    Format settings, ReFrames : 4 frames
    Codec ID : 27
    Duration : 3mn 16s
    Bit rate : 4 796 Kbps
    Width : 1 920 pixels
    Height : 1 080 pixels
    Display aspect ratio : 16:9
    Frame rate : 25.000 fps
    Standard : Component
    Color space : YUV
    Chroma subsampling : 4:2:0
    Bit depth : 8 bits
    Scan type : MBAFF
    Scan order : Top Field First
    Bits/(Pixel*Frame) : 0.093
    Stream size : 112 MiB (91%)
    Color primaries : BT.709
    Transfer characteristics : BT.709
    Matrix coefficients : BT.709
    Color range : Limited

    Audio:
    ID : 321 (0x141)
    Menu ID : 1 (0x1)
    Format : AC-3
    Format/Info : Audio Coding 3
    Mode extension : CM (complete main)
    Format settings, Endianness : Big
    Codec ID : 6
    Duration : 3mn 16s
    Bit rate mode : Constant
    Bit rate : 192 Kbps
    Channel(s) : 2 channels
    Channel positions : Front: L R
    Sampling rate : 48.0 KHz
    Bit depth : 16 bits
    Compression mode : Lossy
    Stream size : 4.49 MiB (4%)
    Language : French

    Hidden Content:
    You must reply before you can see the hidden data contained here.
     
  2. Loading...


  3. 777josem

    777josem ProRes 1080p LPCM V . I . P. Uploader

    Joined:
    Sep 1, 2014
    Messages:
    3,572
    Likes Received:
    2,744
    :happy: Thank you so much!
     
  4. rhea

    rhea Well-Known Member

    Joined:
    Jan 6, 2014
    Messages:
    6,607
    Likes Received:
    674
    thank you so much! :)
     
  5. tf135

    tf135 Well-Known Member

    Joined:
    Nov 14, 2014
    Messages:
    2,244
    Likes Received:
    126
    thank you
     
  6. Zatimi

    Zatimi Active Member

    Joined:
    Aug 27, 2014
    Messages:
    719
    Likes Received:
    131
    thanks a lot
     
  7. Crusha

    Crusha Well-Known Member Capper V . I . P.

    Joined:
    Oct 15, 2014
    Messages:
    2,355
    Likes Received:
    2,522
    thank you
     
  8. isham023

    isham023 Well-Known Member

    Joined:
    Nov 30, 2013
    Messages:
    2,274
    Likes Received:
    51
    Thank you
     
  9. Vinny

    Vinny Active Member

    Joined:
    Dec 26, 2013
    Messages:
    3,430
    Likes Received:
    22
    Thanks! ;D
     
  10. Dreamer

    Dreamer Lana Del Rey ♥ Halsey Capper V . I . P. Uploader

    Joined:
    Dec 4, 2014
    Messages:
    2,802
    Likes Received:
    3,921
    Thank you! :)
     
  11. revilo18

    revilo18 Well-Known Member

    Joined:
    May 26, 2016
    Messages:
    1,851
    Likes Received:
    83
    THANKKK
    THANKK
     
  12. revilo18

    revilo18 Well-Known Member

    Joined:
    May 26, 2016
    Messages:
    1,851
    Likes Received:
    83
    THANKKK