Jason Derulo - Want To Want Me (MTVIDOL-1080i-DD2.0-Djodjara)-HDMania

Discussion in 'MTV IDOL' started by Djodjara, Apr 22, 2015.

  1. Djodjara

    Djodjara Gwen Fan Capper

    Joined:
    Sep 6, 2014
    Messages:
    633
    Likes Received:
    1,057
    Jason Derulo - Want To Want Me (MTV Idol-1080i-Djodjara)-HDMania

    [​IMG]
    [​IMG]

    General:
    ID : 1 (0x1)
    Format : MPEG-TS
    File size : 123 MiB
    Duration : 3mn 16s
    Overall bit rate mode : Variable
    Overall bit rate : 5 249 Kbps

    Video:
    ID : 310 (0x136)
    Menu ID : 1 (0x1)
    Format : AVC
    Format/Info : Advanced Video Codec
    Format profile : [email protected]
    Format settings, CABAC : Yes
    Format settings, ReFrames : 4 frames
    Codec ID : 27
    Duration : 3mn 16s
    Bit rate : 4 796 Kbps
    Width : 1 920 pixels
    Height : 1 080 pixels
    Display aspect ratio : 16:9
    Frame rate : 25.000 fps
    Standard : Component
    Color space : YUV
    Chroma subsampling : 4:2:0
    Bit depth : 8 bits
    Scan type : MBAFF
    Scan order : Top Field First
    Bits/(Pixel*Frame) : 0.093
    Stream size : 112 MiB (91%)
    Color primaries : BT.709
    Transfer characteristics : BT.709
    Matrix coefficients : BT.709
    Color range : Limited

    Audio:
    ID : 321 (0x141)
    Menu ID : 1 (0x1)
    Format : AC-3
    Format/Info : Audio Coding 3
    Mode extension : CM (complete main)
    Format settings, Endianness : Big
    Codec ID : 6
    Duration : 3mn 16s
    Bit rate mode : Constant
    Bit rate : 192 Kbps
    Channel(s) : 2 channels
    Channel positions : Front: L R
    Sampling rate : 48.0 KHz
    Bit depth : 16 bits
    Compression mode : Lossy
    Stream size : 4.49 MiB (4%)
    Language : French

    Hidden Content:
    You must reply before you can see the hidden data contained here.
     
  2. 777josem

    777josem Well-Known Member Uploader

    Joined:
    Sep 1, 2014
    Messages:
    2,339
    Likes Received:
    1,251
    :happy: Thank you so much!
     
  3. rhea

    rhea Well-Known Member

    Joined:
    Jan 6, 2014
    Messages:
    5,193
    Likes Received:
    250
    thank you so much! :)
     
  4. tf135

    tf135 Well-Known Member

    Joined:
    Nov 14, 2014
    Messages:
    1,534
    Likes Received:
    87
    thank you
     
  5. Zatimi

    Zatimi Active Member

    Joined:
    Aug 27, 2014
    Messages:
    589
    Likes Received:
    57
    thanks a lot
     
  6. Crusha

    Crusha Well-Known Member Capper

    Joined:
    Oct 15, 2014
    Messages:
    2,349
    Likes Received:
    2,063
    thank you
     
  7. isham023

    isham023 Well-Known Member

    Joined:
    Nov 30, 2013
    Messages:
    1,993
    Likes Received:
    42
    Thank you
     
  8. Vinny

    Vinny Active Member

    Joined:
    Dec 26, 2013
    Messages:
    1,720
    Likes Received:
    7
    Thanks! ;D
     
  9. Dreamer

    Dreamer ♫ It's Britney Bitch ♫ Capper Uploader

    Joined:
    Dec 4, 2014
    Messages:
    2,135
    Likes Received:
    1,795
    Thank you! :)
     
  10. revilo18

    revilo18 Well-Known Member

    Joined:
    May 26, 2016
    Messages:
    1,256
    Likes Received:
    50
    THANKKK
    THANKK
     
  11. revilo18

    revilo18 Well-Known Member

    Joined:
    May 26, 2016
    Messages:
    1,256
    Likes Received:
    50
    THANKKK