Jamiroquai - Love Foolosophy (Deluxe Music HD-1080i-DD2.0)-Olgold

Discussion in 'DELUXE MUSIC HD' started by Olgold, Aug 23, 2015.

  1. Olgold

    Olgold Well-Known Member Capper

    Joined:
    Aug 19, 2015
    Messages:
    436
    Likes Received:
    1,651
    [​IMG]
    General
    Format : MPEG-TS
    File size : 129 MiB
    Duration : 3mn 44s
    Overall bit rate mode : Variable
    Overall bit rate : 4 809 Kbps

    Video
    Format : AVC
    Format/Info : Advanced Video Codec
    Format profile : [email protected]
    Format settings, CABAC : Yes
    Format settings, ReFrames : 4 frames
    Duration : 3mn 43s
    Bit rate : 4 184 Kbps
    Width : 1 280 pixels
    Height : 1 080 pixels
    Display aspect ratio : 16:9
    Frame rate : 25.000 fps
    Standard : Component
    Color space : YUV
    Chroma subsampling : 4:2:0
    Bit depth : 8 bits
    Scan type : Interlaced
    Scan order : Top Field First
    Bits/(Pixel*Frame) : 0.121
    Stream size : 111 MiB (86%)
    Color range : Limited

    Audio
    Format : AC-3
    Format/Info : Audio Coding 3
    Mode extension : CM (complete main)
    Format settings, Endianness : Big
    Duration : 3mn 44s
    Bit rate mode : Constant
    Bit rate : 384 Kbps
    Channel(s) : 2 channels
    Channel positions : Front: L R
    Sampling rate : 48.0 KHz
    Compression mode : Lossy
    Delay relative to video : -180ms
    Stream size : 10.3 MiB (8%)
    Language : German
    Language, more info : Clean effects

    Hidden Content:
    You must reply before you can see the hidden data contained here.
     
    curg, vidman, rhea and 2 others like this.
  2. Loading...


  3. Crusha

    Crusha Well-Known Member Capper

    Joined:
    Oct 15, 2014
    Messages:
    2,350
    Likes Received:
    2,415
    thank you
     
  4. rhea

    rhea Well-Known Member

    Joined:
    Jan 6, 2014
    Messages:
    6,213
    Likes Received:
    516
    thank you so much
     
  5. vidman

    vidman Member

    Joined:
    Oct 20, 2015
    Messages:
    88
    Likes Received:
    7
    Thank you.
     
  6. J_Pablo

    J_Pablo Active Member

    Joined:
    Nov 27, 2013
    Messages:
    502
    Likes Received:
    103
    Thank you so much!
     
  7. jms_salta

    jms_salta Member

    Joined:
    Nov 9, 2014
    Messages:
    33
    Likes Received:
    0
    thank you so much
     
  8. djcerebro

    djcerebro Member

    Joined:
    Jul 2, 2016
    Messages:
    68
    Likes Received:
    4
    muchas gracias por tan buen video
     
  9. BillyTaylor

    BillyTaylor Member

    Joined:
    Nov 27, 2016
    Messages:
    106
    Likes Received:
    4
    Thanks.
     
  10. seregil

    seregil Member

    Joined:
    Sep 5, 2014
    Messages:
    103
    Likes Received:
    1
    thanks
     
  11. curg

    curg Active Member

    Joined:
    Dec 6, 2013
    Messages:
    830
    Likes Received:
    31
    thank you