James Blunt - You're Beautiful (MTVHITS-1080i-DD2.0-Djodjara)-HDMania

Discussion in 'MTV IDOL' started by Djodjara, Feb 23, 2016.

  1. Djodjara

    Djodjara Gwen Fan Capper V . I . P.

    Joined:
    Sep 6, 2014
    Messages:
    1,445
    Likes Received:
    3,372
    James Blunt - You're Beautiful (MTV Hits-1080i-Djodjara)-HDMania


    [​IMG]
    [​IMG]


    General:
    ID : 1 (0x1)
    Format : MPEG-TS
    File size : 94.1 MiB
    Duration : 3mn 19s
    Overall bit rate mode : Variable
    Overall bit rate : 3 949 Kbps

    Video:
    ID : 310 (0x136)
    Menu ID : 1 (0x1)
    Format : AVC
    Format/Info : Advanced Video Codec
    Format profile : High@L4
    Format settings, CABAC : Yes
    Format settings, ReFrames : 4 frames
    Codec ID : 27
    Duration : 3mn 19s
    Bit rate : 3 560 Kbps
    Width : 1 920 pixels
    Height : 1 080 pixels
    Display aspect ratio : 16:9
    Frame rate : 25.000 fps
    Standard : Component
    Color space : YUV
    Chroma subsampling : 4:2:0
    Bit depth : 8 bits
    Scan type : MBAFF
    Scan type, store method : Interleaved fields
    Scan order : Top Field First
    Bits/(Pixel*Frame) : 0.069
    Stream size : 84.9 MiB (90%)
    Color range : Limited
    Color primaries : BT.709
    Transfer characteristics : BT.709
    Matrix coefficients : BT.709

    Audio:
    ID : 321 (0x141)
    Menu ID : 1 (0x1)
    Format : AC-3
    Format/Info : Audio Coding 3
    Mode extension : CM (complete main)
    Format settings, Endianness : Big
    Codec ID : 6
    Duration : 3mn 19s
    Bit rate mode : Constant
    Bit rate : 192 Kbps
    Channel(s) : 2 channels
    Channel positions : Front: L R
    Sampling rate : 48.0 KHz
    Frame rate : 31.250 fps (1536 spf)
    Compression mode : Lossy
    Stream size : 4.58 MiB (5%)
    Language : French

    Hidden Content:
    You must reply before you can see the hidden data contained here.
     
    Skyty, rhea and CELOBRAZiL like this.
  2. Loading...


  3. RAVIXX

    RAVIXX Well-Known Member V . I . P. Uploader

    Joined:
    Feb 20, 2014
    Messages:
    6,596
    Likes Received:
    92,606
    Thank you so much!
     
  4. Snorom6

    Snorom6 Well-Known Member V . I . P. Uploader

    Joined:
    Dec 17, 2015
    Messages:
    4,246
    Likes Received:
    8,984
    thoth
     
  5. yonita

    yonita Active Member

    Joined:
    Mar 7, 2016
    Messages:
    726
    Likes Received:
    68
    graciass
     
  6. rhea

    rhea Well-Known Member

    Joined:
    Jan 6, 2014
    Messages:
    11,480
    Likes Received:
    2,207
    thank you so much!
     
  7. Pavulon

    Pavulon Well-Known Member Donor

    Joined:
    Mar 22, 2016
    Messages:
    5,031
    Likes Received:
    1,648
    thanks
     
  8. Clannadan

    Clannadan Active Member

    Joined:
    Jun 17, 2016
    Messages:
    311
    Likes Received:
    50
    thanks!
     
  9. Praveen867

    Praveen867 Active Member

    Joined:
    Nov 14, 2016
    Messages:
    931
    Likes Received:
    56
    hank you so much!
     
  10. Wanderson

    Wanderson Member

    Joined:
    Aug 14, 2016
    Messages:
    201
    Likes Received:
    7
    Thank you
     
  11. nastybutf4ncy

    nastybutf4ncy https://www.instagram.com/remasteredvideos/

    Joined:
    Jun 25, 2017
    Messages:
    1,960
    Likes Received:
    1,885
    thanks
     
  12. brownbradpitt613

    brownbradpitt613 Active Member

    Joined:
    Sep 3, 2017
    Messages:
    755
    Likes Received:
    32
    t h a n k s!
     
  13. hugonicolas

    hugonicolas Well-Known Member

    Joined:
    Aug 25, 2017
    Messages:
    1,003
    Likes Received:
    57
  14. marvec141989

    marvec141989 Member

    Joined:
    Apr 6, 2019
    Messages:
    579
    Likes Received:
    18
  15. sebascasilda

    sebascasilda Active Member

    Joined:
    May 17, 2018
    Messages:
    291
    Likes Received:
    56
  16. Taciturnosae

    Taciturnosae Member

    Joined:
    Dec 5, 2016
    Messages:
    541
    Likes Received:
    15
    obrigado
     
  17. Skyty

    Skyty New Member

    Joined:
    May 1, 2018
    Messages:
    12
    Likes Received:
    2
    Thanks
     
  18. EstebanMen

    EstebanMen Member

    Joined:
    May 17, 2019
    Messages:
    273
    Likes Received:
    6
  19. danimanticore

    danimanticore Member

    Joined:
    Jun 21, 2020
    Messages:
    222
    Likes Received:
    11
  20. jhancoxd91

    jhancoxd91 Member

    Joined:
    Aug 1, 2020
    Messages:
    277
    Likes Received:
    12
    a veeeer
     
  21. sigosiendo

    sigosiendo Active Member

    Joined:
    Oct 30, 2018
    Messages:
    900
    Likes Received:
    40
    Thanks!!!