Jake Miller - Lion Heart (Nick.HD.1080i.DD5.1).-Crusha

Discussion in 'NICK HD' started by Crusha, Aug 18, 2015.

  1. Crusha

    Crusha Well-Known Member Capper

    Joined:
    Oct 15, 2014
    Messages:
    2,350
    Likes Received:
    2,138
    [​IMG]

    General
    ID : 1 (0x1)
    Complete name : Jake Miller - Lion Heart (Nick.HD.1080i.DD5.1).-Crusha.ts
    Format : MPEG-TS
    File size : 82.4 MiB
    Duration : 3mn 14s
    Overall bit rate mode : Variable
    Overall bit rate : 3 547 Kbps

    Video
    ID : 2793 (0xAE9)
    Menu ID : 1513 (0x5E9)
    Format : AVC
    Format/Info : Advanced Video Codec
    Format profile : [email protected]
    Format settings, CABAC : Yes
    Format settings, ReFrames : 4 frames
    Codec ID : 27
    Duration : 3mn 14s
    Bit rate : 2 984 Kbps
    Width : 1 920 pixels
    Height : 1 080 pixels
    Display aspect ratio : 16:9
    Frame rate : 29.970 fps
    Standard : Component
    Color space : YUV
    Chroma subsampling : 4:2:0
    Bit depth : 8 bits
    Scan type : MBAFF
    Scan order : Top Field First
    Bits/(Pixel*Frame) : 0.048
    Stream size : 69.3 MiB (84%)
    Color range : Limited
    Color primaries : BT.709
    Transfer characteristics : BT.709
    Matrix coefficients : BT.709

    Audio
    ID : 3793 (0xED1)
    Menu ID : 1513 (0x5E9)
    Format : AC-3
    Format/Info : Audio Coding 3
    Mode extension : CM (complete main)
    Format settings, Endianness : Big
    Codec ID : 6
    Duration : 3mn 14s
    Bit rate mode : Constant
    Bit rate : 384 Kbps
    Channel(s) : 6 channels
    Channel positions : Front: L C R, Side: L R, LFE
    Sampling rate : 48.0 KHz
    Bit depth : 16 bits
    Compression mode : Lossy
    Stream size : 8.92 MiB (11%)
    Language : English

    Hidden Content:
    You must either reply or click 'Like' to see the hidden information contained here.
     
    masahiro likes this.
  2. Zatimi

    Zatimi Active Member

    Joined:
    Aug 27, 2014
    Messages:
    598
    Likes Received:
    61
    thanks a million
     
  3. jayananda

    jayananda Member

    Joined:
    Jan 14, 2015
    Messages:
    248
    Likes Received:
    5
    Thank You
     
  4. Zeeh

    Zeeh Member

    Joined:
    Mar 20, 2015
    Messages:
    327
    Likes Received:
    4
    Thanks
     
  5. masahiro

    masahiro Well-Known Member Capper

    Joined:
    Oct 21, 2013
    Messages:
    212
    Likes Received:
    1,956
    thank you!