DVD Jade - One Woman (Wolfram) [VOB]

Discussion in 'SD' started by claudio1301, Oct 20, 2020.

  1. claudio1301

    claudio1301 Well-Known Member V . I . P.

    Joined:
    Oct 2, 2018
    Messages:
    1,477
    Likes Received:
    3,326
    [​IMG]
    Code:
    General
    Complete name                  : Jade - One Woman (Wolfram).vob
    Format                         : MPEG-PS
    File size                      : 284 MiB
    Duration                       : 4 min 10 s
    Overall bit rate mode          : Variable
    Overall bit rate               : 9 509 kb/s
    
    Video
    ID                             : 224 (0xE0)
    Format                         : MPEG Video
    Format version                 : Version 2
    Format profile                 : Main@Main
    Format settings                : CustomMatrix / BVOP
    Format settings, BVOP          : Yes
    Format settings, Matrix        : Custom
    Format settings, GOP           : Variable
    Duration                       : 4 min 10 s
    Bit rate mode                  : Variable
    Bit rate                       : 7 784 kb/s
    Maximum bit rate               : 8 000 kb/s
    Width                          : 720 pixels
    Height                         : 480 pixels
    Display aspect ratio           : 4:3
    Frame rate                     : 29.970 (30000/1001) FPS
    Standard                       : NTSC
    Color space                    : YUV
    Chroma subsampling             : 4:2:0
    Bit depth                      : 8 bits
    Scan type                      : Progressive
    Compression mode               : Lossy
    Bits/(Pixel*Frame)             : 0.752
    Time code of first frame       : 00:00:00;00
    Time code source               : Group of pictures header
    Stream size                    : 233 MiB (82%)
    Color primaries                : BT.601 NTSC
    Transfer characteristics       : BT.601
    Matrix coefficients            : BT.601
    
    Audio
    ID                             : 189 (0xBD)-160 (0xA0)
    Format                         : PCM
    Format settings                : Big / Signed
    Muxing mode                    : DVD-Video
    Duration                       : 4 min 10 s
    Bit rate mode                  : Constant
    Bit rate                       : 1 536 kb/s
    Channel(s)                     : 2 channels
    Sampling rate                  : 48.0 kHz
    Bit depth                      : 16 bits
    Stream size                    : 45.9 MiB (16%)
    
    Menu
    Host: Mediafire
    Hidden Content:
    You must reply before you can see the hidden data contained here.
     
  2. Loading...


  3. GorgeousGemini

    GorgeousGemini Well-Known Member

    Joined:
    Aug 9, 2017
    Messages:
    1,401
    Likes Received:
    66
  4. thatruth

    thatruth New Member

    Joined:
    Oct 20, 2020
    Messages:
    2
    Likes Received:
    0
    Thank you!!
     
  5. thatruth

    thatruth New Member

    Joined:
    Oct 20, 2020
    Messages:
    2
    Likes Received:
    0
    Thank you!!