J.Balvin ft. Farruko - 6 AM (Stingray.Concerts.HD.1080i.DD5.1).-Crusha

Discussion in 'Stingray Concerts HD' started by Crusha, Jul 1, 2015.

  1. Crusha

    Crusha Well-Known Member Capper

    Joined:
    Oct 15, 2014
    Messages:
    2,350
    Likes Received:
    2,473
    [​IMG]

    General
    ID : 1 (0x1)
    Complete name : J.Balvin ft. Farruko - 6 AM (Stingray.Concerts.HD.1080i.DD5.1).-Crusha.ts
    Format : MPEG-TS
    File size : 112 MiB
    Duration : 4mn 37s
    Overall bit rate mode : Variable
    Overall bit rate : 3 394 Kbps

    Video
    ID : 2833 (0xB11)
    Menu ID : 1522 (0x5F2)
    Format : AVC
    Format/Info : Advanced Video Codec
    Format profile : [email protected]
    Format settings, CABAC : Yes
    Format settings, ReFrames : 4 frames
    Format settings, GOP : M=8, N=32
    Codec ID : 27
    Duration : 4mn 37s
    Bit rate : 2 838 Kbps
    Width : 1 920 pixels
    Height : 1 080 pixels
    Display aspect ratio : 16:9
    Frame rate : 29.970 fps
    Standard : Component
    Color space : YUV
    Chroma subsampling : 4:2:0
    Bit depth : 8 bits
    Scan type : MBAFF
    Scan order : Top Field First
    Bits/(Pixel*Frame) : 0.046
    Stream size : 93.8 MiB (84%)
    Color primaries : BT.709
    Transfer characteristics : BT.709
    Matrix coefficients : BT.709
    Color range : Limited

    Audio
    ID : 3758 (0xEAE)
    Menu ID : 1522 (0x5F2)
    Format : AC-3
    Format/Info : Audio Coding 3
    Mode extension : CM (complete main)
    Format settings, Endianness : Big
    Codec ID : 6
    Duration : 4mn 37s
    Bit rate mode : Constant
    Bit rate : 384 Kbps
    Channel(s) : 6 channels
    Channel positions : Front: L C R, Side: L R, LFE
    Sampling rate : 48.0 KHz
    Bit depth : 16 bits
    Compression mode : Lossy
    Stream size : 12.7 MiB (11%)
    Language : English

    Hidden Content:
    You must either reply or click 'Like' to see the hidden information contained here.
    Password: crusha

    Cap By Me :)
     
  2. medmami

    medmami New Member

    Joined:
    Oct 19, 2016
    Messages:
    16
    Likes Received:
    0
    ccccccccccccccccccc
     
  3. jms_salta

    jms_salta Member

    Joined:
    Nov 9, 2014
    Messages:
    33
    Likes Received:
    0
    graciasssss
     
  4. leryck

    leryck Member

    Joined:
    Sep 21, 2016
    Messages:
    44
    Likes Received:
    1
    gracias
     
  5. looky

    looky Member

    Joined:
    Mar 22, 2017
    Messages:
    182
    Likes Received:
    4
    gracias.
     
  6. DiVenturas

    DiVenturas Well-Known Member

    Joined:
    Oct 21, 2015
    Messages:
    2,535
    Likes Received:
    98