J Balvin ft. Anitta - Ginza (MULTISHOW.HD.1080i.DD5.1).-Crusha

Discussion in 'MULTISHOW HD' started by Crusha, May 7, 2016.

  1. Crusha

    Crusha Well-Known Member Capper

    Joined:
    Oct 15, 2014
    Messages:
    2,350
    Likes Received:
    2,136
    [​IMG] [​IMG] [​IMG] [​IMG] [​IMG]

    Mediainfo
    Code:
    General
    ID                             : 1 (0x1)
    Complete name                  : J Balvin ft. Anitta - Ginza (MULTISHOW.HD.1080i.DD5.1).-Crusha.ts
    Format                         : MPEG-TS
    File size                      : 75.4 MiB
    Duration                       : 2mn 58s
    Overall bit rate mode          : Variable
    Overall bit rate               : 3 551 Kbps
    
    Video
    ID                             : 2593 (0xA21)
    Menu ID                        : 2542 (0x9EE)
    Format                         : AVC
    Format/Info                    : Advanced Video Codec
    Format profile                 : [email protected]
    Format settings, CABAC         : Yes
    Format settings, ReFrames      : 4 frames
    Format settings, GOP           : M=3, N=24
    Codec ID                       : 27
    Duration                       : 2mn 58s
    Bit rate                       : 2 988 Kbps
    Width                          : 1 920 pixels
    Height                         : 1 080 pixels
    Display aspect ratio           : 16:9
    Frame rate                     : 29.970 fps
    Standard                       : Component
    Color space                    : YUV
    Chroma subsampling             : 4:2:0
    Bit depth                      : 8 bits
    Scan type                      : MBAFF
    Bits/(Pixel*Frame)             : 0.048
    Stream size                    : 63.4 MiB (84%)
    Color range                    : Limited
    Color primaries                : BT.709
    Transfer characteristics       : BT.709
    Matrix coefficients            : BT.709
    
    Audio
    ID                             : 3593 (0xE09)
    Menu ID                        : 2542 (0x9EE)
    Format                         : AC-3
    Format/Info                    : Audio Coding 3
    Mode extension                 : CM (complete main)
    Format settings, Endianness    : Big
    Codec ID                       : 6
    Duration                       : 2mn 58s
    Bit rate mode                  : Constant
    Bit rate                       : 384 Kbps
    Channel(s)                     : 6 channels
    Channel positions              : Front: L C R, Side: L R, LFE
    Sampling rate                  : 48.0 KHz
    Bit depth                      : 16 bits
    Compression mode               : Lossy
    Stream size                    : 8.15 MiB (11%)
    Language                       : Portuguese
    
    Hidden Content:
    You must reply before you can see the hidden data contained here.
    Password: crusha
     
  2. Loading...


  3. Pedro Correia

    Pedro Correia Active Member

    Joined:
    Apr 17, 2014
    Messages:
    574
    Likes Received:
    48
    Gracias!
    Obrigado!
     
    Crusha likes this.
  4. Dinho Lima

    Dinho Lima New Member

    Joined:
    Nov 30, 2016
    Messages:
    24
    Likes Received:
    1