HDTV It’s Not the Robbie Williams Christmas Show (1080p) (Amazon) (WEB-DL) (DDP2.0) (2019)

Discussion in 'HD Live Performances' started by UnitedReleases, Dec 8, 2019.

  1. UnitedReleases

    UnitedReleases Well-Known Member

    Joined:
    Jan 10, 2016
    Messages:
    639
    Likes Received:
    1,152
    It’s Not the Robbie Williams Christmas Show (1080p) (Amazon) (WEB-DL) (DDP2.0) (2019) - UnitedReleases
    Ahead of the festive season, one of the most decorated music stars in the world, Robbie Williams, will be taking to the stage for a brand new ITV entertainment special, It’s Not The Robbie Williams Christmas Show, Filmed at the newly restored Alexandra Palace Theatre, the audience and viewers will be treated to a dazzling night of music and entertainment as Robbie performs some classic hits, plus brand new Christmas songs, as well as being joined by some very special celebrity guests including David Walliams and Jamie Cullum in this intimate one-off show.
    [​IMG]

    General
    Complete name : C:\Users\Desktop\It’s Not the Robbie Williams Christmas Show (1080p) (Amazon) (WEB-DL) (DDP2.0) (2019) - UnitedReleases.mkv
    Format : Matroska
    Format version : Version 4 / Version 2
    File size : 4.08 GiB
    Duration : 46 min 48 s
    Overall bit rate : 12.5 Mb/s
    Movie name : It’s Not the Robbie Williams Christmas Show (1080p) (Amazon) (WEB-DL) (DDP2.0) (2019) - UnitedReleases

    Video
    ID : 1
    Format : AVC
    Format/Info : Advanced Video Codec
    Format profile : High@L4
    Format settings, CABAC : Yes
    Format settings, RefFrames : 4 frames
    Codec ID : V_MPEG4/ISO/AVC
    Duration : 46 min 48 s
    Bit rate : 12.2 Mb/s
    Width : 1920 pixels
    Height : 1080 pixels
    Display aspect ratio : 16:9
    Frame rate mode : Constant
    Frame rate : 25.000 FPS
    Color space : YUV
    Chroma subsampling : 4:2:0
    Bit depth : 8 bits
    Scan type : Progressive
    Bits/(Pixel*Frame) : 0.236
    Stream size : 4.00 GiB (98%)
    Title : It’s Not the Robbie Williams Christmas Show (1080p) (Amazon) (WEB-DL) (DDP2.0) (2019) - UnitedReleases
    Language : English
    Default : Yes
    Forced : Yes
    Color range : Limited
    Color primaries : BT.709
    Transfer characteristics : BT.709
    Matrix coefficients : BT.709

    Audio
    ID : 2
    Format : E-AC-3
    Format/Info : Enhanced Audio Coding 3
    Format settings, Endianness : Big
    Codec ID : A_EAC3
    Duration : 46 min 48 s
    Bit rate mode : Constant
    Bit rate : 224 kb/s
    Channel(s) : 2 channels
    Channel positions : Front: L R
    Sampling rate : 48.0 kHz
    Frame rate : 187.500 FPS (256 SPF)
    Compression mode : Lossy
    Stream size : 75.0 MiB (2%)
    Title : DDP2.0
    Language : English
    Service kind : Complete Main
    Default : Yes
    Forced : Yes


    Or

    Hidden Content:
    You must either reply or click 'Like' to see the hidden information contained here.

    Enjoy Ladys and Gents!!

    Please Use the full file name when posting elsewhere!!


    Please Thank: Me :)

    Yes i can Download from Amazon US, UK & Germany and NO Im NOT SELLING MY TOOL SO DONT ASK Just ENJOY What I Upload
     
    Last edited: Dec 10, 2019
  2. Loading...


  3. mmg1818

    mmg1818 Mabel, Ava Max.

    Joined:
    Dec 24, 2013
    Messages:
    757
    Likes Received:
    2,492
    UnitedReleases likes this.
  4. UnitedReleases

    UnitedReleases Well-Known Member

    Joined:
    Jan 10, 2016
    Messages:
    639
    Likes Received:
    1,152
    thanks u to will upload once i downloaded it.
     
    Last edited: Dec 8, 2019
  5. SmartBeens

    SmartBeens Well-Known Member

    Joined:
    Oct 5, 2014
    Messages:
    1,171
    Likes Received:
    147
    Thanks Heaps >> Will get this once you've finished uploading :)
     
    UnitedReleases likes this.
  6. UnitedReleases

    UnitedReleases Well-Known Member

    Joined:
    Jan 10, 2016
    Messages:
    639
    Likes Received:
    1,152
    Amazon still uploading it file is incomplete atm so hopefully be finished soon
     
    SmartBeens likes this.
  7. snowblind

    snowblind New Member

    Joined:
    Jan 1, 2017
    Messages:
    15
    Likes Received:
    1
    merry xmas
     
  8. rasputin

    rasputin Well-Known Member

    Joined:
    Dec 9, 2015
    Messages:
    1,453
    Likes Received:
    109
    thanx
     
  9. apple66

    apple66 Active Member

    Joined:
    May 1, 2015
    Messages:
    429
    Likes Received:
    29
    thanks, thanks
     
  10. Bruno

    Bruno Well-Known Member

    Joined:
    Nov 3, 2013
    Messages:
    2,352
    Likes Received:
    208
    Many thx
     
  11. raphael-fp

    raphael-fp Member

    Joined:
    Jan 19, 2017
    Messages:
    143
    Likes Received:
    8
    thank you
     
  12. tranquanghuy0804

    tranquanghuy0804 Member

    Joined:
    Dec 15, 2016
    Messages:
    250
    Likes Received:
    7
  13. mvlmoraes

    mvlmoraes Well-Known Member Donor

    Joined:
    Nov 22, 2013
    Messages:
    3,839
    Likes Received:
    604
    please...upload MEGA, GOOGLE DOCS....
     
  14. Fonny

    Fonny Member

    Joined:
    Dec 1, 2016
    Messages:
    133
    Likes Received:
    21
    thanks
     
  15. origami86

    origami86 Member

    Joined:
    Jun 29, 2018
    Messages:
    49
    Likes Received:
    3
    wow its amazing thnaks
     
  16. UnitedReleases

    UnitedReleases Well-Known Member

    Joined:
    Jan 10, 2016
    Messages:
    639
    Likes Received:
    1,152
    Now Uploading this will post link asap
     
  17. UnitedReleases

    UnitedReleases Well-Known Member

    Joined:
    Jan 10, 2016
    Messages:
    639
    Likes Received:
    1,152
    2 Links Posted
     
    Last edited: Dec 10, 2019
  18. jasonuk1234578

    jasonuk1234578 Member

    Joined:
    Sep 25, 2015
    Messages:
    172
    Likes Received:
    18
    thjanks
     
    UnitedReleases likes this.
  19. redmerkillry

    redmerkillry Member

    Joined:
    Dec 9, 2016
    Messages:
    88
    Likes Received:
    13
    Thank you so much
     
    UnitedReleases likes this.
  20. MSky73

    MSky73 Member

    Joined:
    Sep 29, 2016
    Messages:
    133
    Likes Received:
    13
    thank you
     
    UnitedReleases likes this.
  21. antoniojoseguizilini

    antoniojoseguizilini Well-Known Member

    Joined:
    Dec 2, 2016
    Messages:
    1,175
    Likes Received:
    70
    thanks