Inna ft. J Balvin - Cola Song (Telehit.HD.1080i.DD2.0).-Crusha

Discussion in 'TELEHIT HD' started by Crusha, Aug 5, 2015.

  1. Crusha

    Crusha Well-Known Member Capper

    Joined:
    Oct 15, 2014
    Messages:
    2,350
    Likes Received:
    2,218
    [​IMG]

    General
    ID : 1 (0x1)
    Complete name : Telehit HD\Inna ft. J Balvin - Cola Song (Telehit.HD.1080i.DD2.0).-Crusha.ts
    Format : MPEG-TS
    File size : 90.5 MiB
    Duration : 3mn 19s
    Overall bit rate mode : Variable
    Overall bit rate : 3 800 Kbps

    Video
    ID : 2238 (0x8BE)
    Menu ID : 857 (0x359)
    Format : AVC
    Format/Info : Advanced Video Codec
    Format profile : [email protected]
    Format settings, CABAC : Yes
    Format settings, ReFrames : 4 frames
    Codec ID : 27
    Duration : 3mn 19s
    Bit rate : 3 419 Kbps
    Width : 1 920 pixels
    Height : 1 080 pixels
    Display aspect ratio : 16:9
    Frame rate : 29.970 fps
    Standard : Component
    Color space : YUV
    Chroma subsampling : 4:2:0
    Bit depth : 8 bits
    Scan type : MBAFF
    Scan order : Top Field First
    Bits/(Pixel*Frame) : 0.055
    Stream size : 81.4 MiB (90%)
    Color range : Limited
    Color primaries : BT.709
    Transfer characteristics : BT.709
    Matrix coefficients : BT.709

    Audio
    ID : 3849 (0xF09)
    Menu ID : 857 (0x359)
    Format : AC-3
    Format/Info : Audio Coding 3
    Mode extension : CM (complete main)
    Format settings, Endianness : Big
    Codec ID : 6
    Duration : 3mn 19s
    Bit rate mode : Constant
    Bit rate : 192 Kbps
    Channel(s) : 2 channels
    Channel positions : Front: L R
    Sampling rate : 48.0 KHz
    Bit depth : 16 bits
    Compression mode : Lossy
    Stream size : 4.57 MiB (5%)
    Language : English

    Hidden Content:
    You must either reply or click 'Like' to see the hidden information contained here.
    Password: crusha

    Cap By Me
     
    arnold, Zeeh, furkan and 2 others like this.
  2. Loading...


  3. sebasswift

    sebasswift Member

    Joined:
    Oct 26, 2015
    Messages:
    117
    Likes Received:
    4
    COLA COLA COLITA TELEHIT HD
     
  4. GHN

    GHN Member

    Joined:
    Oct 27, 2014
    Messages:
    422
    Likes Received:
    10
    thank you
     
  5. drulo

    drulo New Member

    Joined:
    Jan 25, 2016
    Messages:
    23
    Likes Received:
    0
    thank you
     
  6. Pavulon

    Pavulon Well-Known Member

    Joined:
    Mar 22, 2016
    Messages:
    1,521
    Likes Received:
    77
    thanks
     
  7. andy80

    andy80 Member

    Joined:
    Sep 25, 2016
    Messages:
    59
    Likes Received:
    7
    thanks man.