INNA Feat. Marian Hill - Diggy Down (RE!MUSIC-1080i-DD2.0)

Discussion in 'RE! MUSIC' started by mov, Dec 18, 2014.

  1. mov

    mov Well-Known Member

    Joined:
    Aug 29, 2014
    Messages:
    346
    Likes Received:
    597

    INNA Feat. Marian Hill - Diggy Down (RE!MUSIC-1080i-DD2.0)

    [​IMG]

    Video
    ID : 1001 (0x3E9)
    Menu ID : 1 (0x1)
    Format : AVC
    Format/Info : Advanced Video Codec
    Format profile : [email protected]
    Format settings, CABAC : Yes
    Format settings, ReFrames : 4 frames
    Codec ID : 27
    Duration : 3mn 26s
    Bit rate mode : Variable
    Bit rate : 31.6 Mbps
    Maximum bit rate : 30.9 Mbps
    Width : 1 920 pixels
    Height : 1 080 pixels
    Display aspect ratio : 16:9
    Frame rate : 25.000 fps
    Standard : PAL
    Color space : YUV
    Chroma subsampling : 4:2:0
    Bit depth : 8 bits
    Scan type : Interlaced
    Scan order : Top Field First
    Bits/(Pixel*Frame) : 0.609
    Stream size : 779 MiB (94%)

    Audio
    ID : 1002 (0x3EA)
    Menu ID : 1 (0x1)
    Format : AC-3
    Format/Info : Audio Coding 3
    Mode extension : CM (complete main)
    Format settings, Endianness : Big
    Codec ID : 129
    Duration : 3mn 26s
    Bit rate mode : Constant
    Bit rate : 320 Kbps
    Channel(s) : 2 channels
    Channel positions : Front: L R
    Sampling rate : 48.0 KHz
    Bit depth : 16 bits
    Compression mode : Lossy
    Stream size : 7.90 MiB (1%)


    Hidden Content:
    You must either reply or click 'Like' to see the hidden information contained here.
     
    Last edited by a moderator: Jul 9, 2015
  2. BiG_Blue

    BiG_Blue Active Member

    Joined:
    Oct 2, 2014
    Messages:
    436
    Likes Received:
    26
    Good Job
     
  3. Amir Hossien

    Amir Hossien Member

    Joined:
    Feb 6, 2014
    Messages:
    785
    Likes Received:
    21
  4. klaus

    klaus Active Member

    Joined:
    Sep 11, 2014
    Messages:
    1,078
    Likes Received:
    20
    thanks
     
  5. rhea

    rhea Well-Known Member

    Joined:
    Jan 6, 2014
    Messages:
    7,152
    Likes Received:
    799
    thanks a lot
     
  6. tomkins

    tomkins Active Member

    Joined:
    Mar 28, 2014
    Messages:
    250
    Likes Received:
    126
    Thanks :)
     
  7. Joseph

    Joseph Active Member

    Joined:
    Dec 10, 2013
    Messages:
    749
    Likes Received:
    170
    oohhh, new channel. Thanks!
     
  8. withcap

    withcap Well-Known Member

    Joined:
    Oct 29, 2013
    Messages:
    1,877
    Likes Received:
    115
    Thank you :)
     
  9. mizdot

    mizdot Well-Known Member

    Joined:
    Nov 13, 2014
    Messages:
    1,971
    Likes Received:
    54
    tnx man
     
  10. Crusha

    Crusha Well-Known Member Capper V . I . P.

    Joined:
    Oct 15, 2014
    Messages:
    2,358
    Likes Received:
    2,689
    thanks
     
  11. MCTR

    MCTR Active Member

    Joined:
    Feb 23, 2014
    Messages:
    297
    Likes Received:
    42
    Thank You
     
  12. DETOX

    DETOX VIXX▿T-ARA▿B.A.P▿BTS▿JBJ▿WANNA ONE▿WINNER▿BIGBANG V . I . P. Uploader

    Joined:
    Feb 20, 2014
    Messages:
    3,952
    Likes Received:
    29,559
    Thank you so much! :love:
     
  13. kesh1000

    kesh1000 Member

    Joined:
    May 5, 2014
    Messages:
    77
    Likes Received:
    0
    Thanks for this video!
     
  14. furkan

    furkan Member

    Joined:
    Oct 9, 2015
    Messages:
    249
    Likes Received:
    7
    thnks youuuu
     
  15. tapions

    tapions Active Member

    Joined:
    Aug 30, 2016
    Messages:
    914
    Likes Received:
    79
    gracias
     
  16. pajtas

    pajtas Member

    Joined:
    Feb 15, 2016
    Messages:
    36
    Likes Received:
    4
    thanks
     
  17. Pavulon

    Pavulon Well-Known Member

    Joined:
    Mar 22, 2016
    Messages:
    3,839
    Likes Received:
    499
    thanks
     
  18. WaRKeR

    WaRKeR New Member

    Joined:
    Feb 18, 2017
    Messages:
    19
    Likes Received:
    1
    thank you
     
  19. alifaxa

    alifaxa Member

    Joined:
    Oct 21, 2015
    Messages:
    543
    Likes Received:
    11
  20. JuaniVN

    JuaniVN Member

    Joined:
    Aug 6, 2017
    Messages:
    178
    Likes Received:
    5
    merc
    i