INNA Feat. Marian Hill - Diggy Down (RE!MUSIC-1080i-DD2.0)

Discussion in 'RE! MUSIC' started by mov, Dec 18, 2014.

  1. mov

    mov Well-Known Member

    Joined:
    Aug 29, 2014
    Messages:
    251
    Likes Received:
    338

    INNA Feat. Marian Hill - Diggy Down (RE!MUSIC-1080i-DD2.0)

    [​IMG]

    Video
    ID : 1001 (0x3E9)
    Menu ID : 1 (0x1)
    Format : AVC
    Format/Info : Advanced Video Codec
    Format profile : [email protected]
    Format settings, CABAC : Yes
    Format settings, ReFrames : 4 frames
    Codec ID : 27
    Duration : 3mn 26s
    Bit rate mode : Variable
    Bit rate : 31.6 Mbps
    Maximum bit rate : 30.9 Mbps
    Width : 1 920 pixels
    Height : 1 080 pixels
    Display aspect ratio : 16:9
    Frame rate : 25.000 fps
    Standard : PAL
    Color space : YUV
    Chroma subsampling : 4:2:0
    Bit depth : 8 bits
    Scan type : Interlaced
    Scan order : Top Field First
    Bits/(Pixel*Frame) : 0.609
    Stream size : 779 MiB (94%)

    Audio
    ID : 1002 (0x3EA)
    Menu ID : 1 (0x1)
    Format : AC-3
    Format/Info : Audio Coding 3
    Mode extension : CM (complete main)
    Format settings, Endianness : Big
    Codec ID : 129
    Duration : 3mn 26s
    Bit rate mode : Constant
    Bit rate : 320 Kbps
    Channel(s) : 2 channels
    Channel positions : Front: L R
    Sampling rate : 48.0 KHz
    Bit depth : 16 bits
    Compression mode : Lossy
    Stream size : 7.90 MiB (1%)


    Hidden Content:
    You must either reply or click 'Like' to see the hidden information contained here.
     
    Last edited by a moderator: Jul 9, 2015
    sinshin, Aiden Boy, WTF and 9 others like this.
  2. BiG_Blue

    BiG_Blue Member

    Joined:
    Oct 2, 2014
    Messages:
    364
    Likes Received:
    13
    Good Job
     
  3. Amir Hossien

    Amir Hossien Member

    Joined:
    Feb 6, 2014
    Messages:
    696
    Likes Received:
    21
  4. klaus

    klaus Member

    Joined:
    Sep 11, 2014
    Messages:
    699
    Likes Received:
    9
    thanks
     
  5. rhea

    rhea Well-Known Member

    Joined:
    Jan 6, 2014
    Messages:
    5,193
    Likes Received:
    250
    thanks a lot
     
  6. tomkins

    tomkins Active Member

    Joined:
    Mar 28, 2014
    Messages:
    243
    Likes Received:
    106
    Thanks :)
     
  7. Joseph

    Joseph Active Member

    Joined:
    Dec 10, 2013
    Messages:
    726
    Likes Received:
    144
    oohhh, new channel. Thanks!
     
  8. withcap

    withcap Well-Known Member

    Joined:
    Oct 29, 2013
    Messages:
    1,311
    Likes Received:
    67
    Thank you :)
     
  9. mizdot

    mizdot Active Member

    Joined:
    Nov 13, 2014
    Messages:
    1,148
    Likes Received:
    20
    tnx man
     
  10. Crusha

    Crusha Well-Known Member Capper

    Joined:
    Oct 15, 2014
    Messages:
    2,349
    Likes Received:
    2,073
    thanks
     
  11. MCTR

    MCTR Member

    Joined:
    Feb 23, 2014
    Messages:
    275
    Likes Received:
    23
    Thank You
     
  12. DETOX

    DETOX Well-Known Member V . I . P. Uploader

    Joined:
    Feb 20, 2014
    Messages:
    2,602
    Likes Received:
    12,246
    Thank you so much! :love:
     
  13. kesh1000

    kesh1000 Member

    Joined:
    May 5, 2014
    Messages:
    74
    Likes Received:
    0
    Thanks for this video!
     
  14. furkan

    furkan Member

    Joined:
    Oct 9, 2015
    Messages:
    194
    Likes Received:
    3
    thnks youuuu
     
  15. tapions

    tapions Active Member

    Joined:
    Aug 30, 2016
    Messages:
    749
    Likes Received:
    47
    gracias