INNA - Club Rocker (M6 Clips HD-1080i-DD5.1-art-v-k)-HDMania

Discussion in 'M6 HD' started by DETOX, Sep 17, 2015.

  1. DETOX

    DETOX Well-Known Member V . I . P. Uploader

    Joined:
    Feb 20, 2014
    Messages:
    2,748
    Likes Received:
    13,846
    [​IMG]
    Code:
    General
    ID                                       : 6600 (0x19C8)
    Complete name                            : INNA - Club Rocker (M6 Clips HD-1080i-DD5.1-@rt-v-k).ts
    Format                                   : MPEG-TS
    File size                                : 220 MiB
    Duration                                 : 3mn 55s
    Overall bit rate mode                    : Variable
    Overall bit rate                         : 7 844 Kbps
    
    Video
    ID                                       : 2020 (0x7E4)
    Menu ID                                  : 202 (0xCA)
    Format                                   : AVC
    Format/Info                              : Advanced Video Codec
    Format profile                           : Main@L4
    Format settings, CABAC                   : Yes
    Format settings, ReFrames                : 4 frames
    Codec ID                                 : 27
    Duration                                 : 3mn 55s
    Bit rate                                 : 7 068 Kbps
    Width                                    : 1 920 pixels
    Height                                   : 1 080 pixels
    Display aspect ratio                     : 16:9
    Frame rate                               : 25.000 fps
    Color space                              : YUV
    Chroma subsampling                       : 4:2:0
    Bit depth                                : 8 bits
    Scan type                                : MBAFF
    Scan order                               : Top Field First
    Bits/(Pixel*Frame)                       : 0.136
    Stream size                              : 198 MiB (90%)
    Color range                              : Limited
    Color primaries                          : BT.709
    Transfer characteristics                 : BT.709
    Matrix coefficients                      : BT.709
    
    Audio
    ID                                       : 2021 (0x7E5)
    Menu ID                                  : 202 (0xCA)
    Format                                   : AC-3
    Format/Info                              : Audio Coding 3
    Mode extension                           : CM (complete main)
    Format settings, Endianness              : Big
    Codec ID                                 : 6
    Duration                                 : 3mn 55s
    Bit rate mode                            : Constant
    Bit rate                                 : 384 Kbps
    Channel(s)                               : 6 channels
    Channel positions                        : Front: L C R, Side: L R, LFE
    Sampling rate                            : 48.0 KHz
    Bit depth                                : 16 bits
    Compression mode                         : Lossy
    Delay relative to video                  : 2ms
    Stream size                              : 10.8 MiB (5%)
    Language                                 : French
    Hidden Content:
    You must reply before you can see the hidden data contained here.
     
    sinshin and rhea like this.
  2. Hyrus

    Hyrus Arianator / Selenator / Victorian / LBS* Donor

    Joined:
    Feb 9, 2015
    Messages:
    1,076
    Likes Received:
    556
    Thanks a lot for Inna. This song Rocks!! :mad:
     
  3. rhea

    rhea Well-Known Member

    Joined:
    Jan 6, 2014
    Messages:
    5,258
    Likes Received:
    253
    thank you so much :)
     
  4. jayananda

    jayananda Member

    Joined:
    Jan 14, 2015
    Messages:
    248
    Likes Received:
    5
    Thank You
     
  5. WTF

    WTF Member

    Joined:
    Jan 2, 2014
    Messages:
    45
    Likes Received:
    1
     
  6. MCTR

    MCTR Member

    Joined:
    Feb 23, 2014
    Messages:
    275
    Likes Received:
    23
    Thank You
     
  7. hankdt001

    hankdt001 Member

    Joined:
    Jan 21, 2016
    Messages:
    41
    Likes Received:
    3
    Thank You
     
  8. Pavulon

    Pavulon Active Member

    Joined:
    Mar 22, 2016
    Messages:
    1,040
    Likes Received:
    11
    thanks
     
  9. sinshin

    sinshin Member

    Joined:
    Jan 27, 2015
    Messages:
    69
    Likes Received:
    35
    thank you