HDTV iHeartRadio Music Awards (2018) 720p HDTV DD5.1 x264-BTN

Discussion in 'Interviews / TV shows / Others' started by RuneMagle, Mar 13, 2018.

  1. RuneMagle

    RuneMagle Active Member

    Joined:
    Apr 5, 2016
    Messages:
    54
    Likes Received:
    123
    iHeart Radio Music Awards:[​IMG]

    Code:
    General
    Unique ID : 308886288154133998944046097528294415993 (0xE86155CE235793CADB16A4CC88831E79)
    Complete name : iHeartRadio.Music.Awards.2018.720p.HDTV.DD5.1.x264-BTN.mkv
    Format : Matroska
    Format version : Version 4 / Version 2
    File size : 2.91 GiB
    Duration : 1 h 36 min
    Overall bit rate : 4 312 kb/s
    Encoded date : UTC 2018-03-13 11:00:55
    Writing application : mkvmerge v21.0.0 ('Tardigrades Will Inherit The Earth') 64-bit
    Writing library : libebml v1.3.5 + libmatroska v1.4.8
    
    Video
    ID : 1
    Format : AVC
    Format/Info : Advanced Video Codec
    Format profile : Main@L3.1
    Format settings : 4 Ref Frames
    Format settings, CABAC : No
    Format settings, RefFrames : 4 frames
    Codec ID : V_MPEG4/ISO/AVC
    Duration : 1 h 36 min
    Bit rate : 3 862 kb/s
    Width : 1 280 pixels
    Height : 720 pixels
    Display aspect ratio : 16:9
    Frame rate mode : Constant
    Frame rate : 29.970 (30000/1001) FPS
    Color space : YUV
    Chroma subsampling : 4:2:0
    Bit depth : 8 bits
    Scan type : Progressive
    Bits/(Pixel*Frame) : 0.140
    Stream size : 2.61 GiB (90%)
    Writing library : x264 core 148 r2708 86b7198
    Encoding settings : cabac=0 / ref=2 / deblock=1:0:0 / analyse=0x1:0x111 / me=hex / subme=7 / psy=1 / psy_rd=1.00:0.00 / mixed_ref=1 / me_range=16 / chroma_me=1 / trellis=1 / 8x8dct=0 / cqm=0 / deadzone=21,11 / fast_pskip=1 / chroma_qp_offset=-2 / threads=6 / lookahead_threads=1 / sliced_threads=0 / nr=0 / decimate=1 / interlaced=0 / bluray_compat=0 / constrained_intra=0 / bframes=3 / b_pyramid=2 / b_adapt=1 / b_bias=0 / direct=1 / weightb=1 / open_gop=0 / weightp=2 / keyint=300 / keyint_min=30 / scenecut=40 / intra_refresh=0 / rc_lookahead=40 / rc=crf / mbtree=1 / crf=22.0 / qcomp=0.60 / qpmin=0 / qpmax=69 / qpstep=4 / vbv_maxrate=140000 / vbv_bufsize=14000 / crf_max=0.0 / nal_hrd=none / filler=0 / ip_ratio=1.40 / aq=1:1.00
    Language : English
    Default : Yes
    Forced : No
    Color range : Limited
    Color primaries : BT.709
    Transfer characteristics : BT.709
    Matrix coefficients : BT.709
    
    Audio
    ID : 2
    Format : AC-3
    Format/Info : Audio Coding 3
    Codec ID : A_AC3
    Duration : 1 h 36 min
    Bit rate mode : Constant
    Bit rate : 448 kb/s
    Channel(s) : 6 channels
    Channel positions : Front: L C R, Side: L R, LFE
    Sampling rate : 48.0 kHz
    Frame rate : 31.250 FPS (1536 SPF)
    Bit depth : 16 bits
    Compression mode : Lossy
    Delay relative to video : 48 ms
    Stream size : 310 MiB (10%)
    Title : Surround
    Language : English
    Service kind : Complete Main
    Default : Yes
    Forced : No
    
    Text
    ID : 3
    Format : UTF-8
    Codec ID : S_TEXT/UTF8
    Codec ID/Info : UTF-8 Plain Text
    Duration : 1 h 36 min
    Bit rate : 212 b/s
    Count of elements : 2395
    Stream size : 150 KiB (0%)
    Language : English
    Default : Yes
    Forced : No
    Screenshots:
    [​IMG]
    Hidden Content:
    You must either reply or click 'Like' to see the hidden information contained here.
     
  2. Loading...


  3. Mozzie

    Mozzie Member

    Joined:
    Nov 6, 2017
    Messages:
    123
    Likes Received:
    13
    thanks
     
    RuneMagle likes this.
  4. maz

    maz New Member

    Joined:
    Feb 16, 2015
    Messages:
    18
    Likes Received:
    2
    thank you
     
    RuneMagle likes this.
  5. vladana_91

    vladana_91 New Member

    Joined:
    Mar 15, 2017
    Messages:
    29
    Likes Received:
    1
    thanks
     
    RuneMagle likes this.
  6. May Wilson

    May Wilson Member

    Joined:
    Jun 23, 2015
    Messages:
    69
    Likes Received:
    1
    thankyou hugely
     
    RuneMagle likes this.
  7. elvis88688

    elvis88688 New Member

    Joined:
    Oct 24, 2016
    Messages:
    7
    Likes Received:
    1
    thanks
     
    RuneMagle likes this.
  8. Mannygforever

    Mannygforever Member

    Joined:
    Sep 24, 2016
    Messages:
    44
    Likes Received:
    2
    Yeaaaaa

     
    RuneMagle likes this.
  9. ovo23

    ovo23 Member

    Joined:
    Jan 4, 2016
    Messages:
    147
    Likes Received:
    7
    thanks
     
    RuneMagle likes this.
  10. nino.navy

    nino.navy Well-Known Member

    Joined:
    May 30, 2014
    Messages:
    2,818
    Likes Received:
    171
    thanks for the full show :)
     
    RuneMagle likes this.
  11. torikelly

    torikelly Member

    Joined:
    Apr 13, 2017
    Messages:
    96
    Likes Received:
    2
    thanks
     
    RuneMagle likes this.
  12. Kyle

    Kyle Member

    Joined:
    Jan 23, 2014
    Messages:
    85
    Likes Received:
    1
    thank you
     
    RuneMagle likes this.
  13. AK1984

    AK1984 Member

    Joined:
    Oct 14, 2014
    Messages:
    113
    Likes Received:
    4
    Thanks!
     
    RuneMagle likes this.
  14. minoushiza

    minoushiza New Member

    Joined:
    Apr 30, 2016
    Messages:
    26
    Likes Received:
    2
    Thanks so much
     
    RuneMagle likes this.
  15. the queen

    the queen New Member

    Joined:
    Nov 5, 2016
    Messages:
    18
    Likes Received:
    3
    thanks
     
    RuneMagle likes this.
  16. lebritishpounds

    lebritishpounds Member

    Joined:
    Oct 8, 2014
    Messages:
    154
    Likes Received:
    23
    thank you
     
    RuneMagle likes this.
  17. jayananda

    jayananda Active Member

    Joined:
    Jan 14, 2015
    Messages:
    846
    Likes Received:
    228
    Thank You
     
    RuneMagle likes this.