HDTV iHeartRadio Jingle Ball (2017) 1080i HDTV DD2.0 H.264-HDMania

Discussion in 'HD Live Performances' started by rgf72k, Dec 14, 2017.

  1. markjackson

    markjackson Active Member

    Joined:
    Jan 8, 2014
    Messages:
    889
    Likes Received:
    48
    thank you!
     
  2. hackademic

    hackademic Member

    Joined:
    Jan 29, 2014
    Messages:
    119
    Likes Received:
    15
  3. gugaronaldosimba

    gugaronaldosimba New Member

    Joined:
    Nov 10, 2017
    Messages:
    22
    Likes Received:
    3
    [​IMG]
    thanks
    [​IMG]
    [​IMG]
    [​IMG] [​IMG] [​IMG] [​IMG]

    TrackList

    01. Taylor Swift - …Ready For It?
    02. Demi Lovato - Sorry Not Sorry
    03. Ed Sheeran - Shape of You
    04. Logic - 1-800-273-8255
    05. The Chainsmokers - Closer ft. Halsey

    06. Charlie Puth - How Long + Some short and sweet Merry Christmas song XD
    07. Taylor Swift feat. Ed Sheeran - End Game
    08. Niall Horan - Too Much To Ask
    09. Macklemore feat. Kesha - Good Old Days
    10. Liam Payne - Strip That Down
    11. Sam Smith - Too Good At Goodbyes
    12. Taylor Swift - Look What You Made Me Do


    General
    ID : 1 (0x1)
    Complete name : iHeartRadio Jingle Ball (2017) 1080i HDTV DD2.0 H.264-HDMania.ts
    Format : MPEG-TS
    File size : 6.24 GiB
    Duration : 1 h 2 min
    Overall bit rate mode : Variable
    Overall bit rate : 14.3 Mb/s

    Video
    ID : 4113 (0x1011)
    Menu ID : 1 (0x1)
    Format : AVC
    Format/Info : Advanced Video Codec
    Format profile : Main@L4
    Format settings, CABAC : Yes
    Format settings, ReFrames : 4 frames
    Codec ID : 27
    Duration : 1 h 2 min
    Bit rate mode : Variable
    Bit rate : 13.2 Mb/s
    Maximum bit rate : 20.0 Mb/s
    Width : 1 920 pixels
    Height : 1 080 pixels
    Display aspect ratio : 16:9
    Frame rate : 29.970 (30000/1001) FPS
    Color space : YUV
    Chroma subsampling : 4:2:0
    Bit depth : 8 bits
    Scan type : Interlaced
    Scan type, store method : Separated fields
    Scan order : Top Field First
    Bits/(Pixel*Frame) : 0.212
    Stream size : 5.76 GiB (92%)
    Color range : Limited
    Color primaries : BT.709
    Transfer characteristics : BT.709
    Matrix coefficients : BT.709

    Audio
    ID : 4352 (0x1100)
    Menu ID : 1 (0x1)
    Format : AC-3
    Format/Info : Audio Coding 3
    Format settings, Endianness : Big
    Codec ID : 129
    Duration : 1 h 2 min
    Bit rate mode : Constant
    Bit rate : 384 kb/s
    Channel(s) : 2 channels
    Channel positions : Front: L R
    Sampling rate : 48.0 kHz
    Frame rate : 31.250 FPS (1536 spf)
    Bit depth : 16 bits
    Compression mode : Lossy
    Stream size : 172 MiB (3%)
    Language : English
    Service kind : Complete Main

    Download:
    ***Hidden content cannot be quoted.***


    Capped By Me :victory:
    [/QUOTE]
     
    beatlesxxx, jj585 and JimmySwifties like this.
  4. JonVanBra

    JonVanBra Member

    Joined:
    Aug 17, 2016
    Messages:
    151
    Likes Received:
    9
  5. miguelmr87

    miguelmr87 Well-Known Member

    Joined:
    Dec 20, 2013
    Messages:
    1,932
    Likes Received:
    371
    thnk you
     
  6. JoseK

    JoseK Active Member

    Joined:
    Aug 30, 2016
    Messages:
    286
    Likes Received:
    71
    thaanks
     
  7. aidilchica

    aidilchica New Member

    Joined:
    May 8, 2017
    Messages:
    24
    Likes Received:
    0
  8. jose2018

    jose2018 Member

    Joined:
    Nov 26, 2016
    Messages:
    542
    Likes Received:
    24
  9. JimmySwifties

    JimmySwifties [Uploader] and [Requester]

    Joined:
    Mar 23, 2017
    Messages:
    255
    Likes Received:
    457
  10. Adriano Everton

    Adriano Everton Well-Known Member

    Joined:
    Aug 25, 2014
    Messages:
    1,766
    Likes Received:
    186
  11. loris81

    loris81 Member

    Joined:
    Jun 21, 2016
    Messages:
    294
    Likes Received:
    3
    many thx it's great to see that
     
  12. pinky2

    pinky2 Active Member

    Joined:
    Dec 12, 2015
    Messages:
    899
    Likes Received:
    119
    thanks
     
  13. silentnight247

    silentnight247 Member

    Joined:
    Jun 2, 2016
    Messages:
    162
    Likes Received:
    5
  14. kyo23

    kyo23 Member

    Joined:
    Jan 31, 2014
    Messages:
    283
    Likes Received:
    8
    THANK YOU
     
  15. ovo23

    ovo23 Member

    Joined:
    Jan 4, 2016
    Messages:
    153
    Likes Received:
    9
    thanks
     
  16. multimediafm

    multimediafm Well-Known Member Donor

    Joined:
    Mar 27, 2014
    Messages:
    13,568
    Likes Received:
    1,063
  17. minsha9

    minsha9 Member

    Joined:
    Sep 10, 2014
    Messages:
    179
    Likes Received:
    11
    Thank you!
     
  18. Nito4k

    Nito4k Member

    Joined:
    Jan 12, 2018
    Messages:
    188
    Likes Received:
    2
    Thank You........
     
  19. Nito4k

    Nito4k Member

    Joined:
    Jan 12, 2018
    Messages:
    188
    Likes Received:
    2
    Thanks
     
  20. jj585

    jj585 Member

    Joined:
    Oct 22, 2014
    Messages:
    40
    Likes Received:
    0
    Thanks for capping and sharing​