HDTV iHeartRadio Jingle Ball (2017) 1080i HDTV DD2.0 H.264-HDMania

Discussion in 'HD Live Performances' started by rgf72k, Dec 14, 2017.

  1. rgf72k

    rgf72k Founder Staff Member AdMiN Uploader

    Joined:
    Oct 1, 2013
    Messages:
    1,242
    Likes Received:
    18,873
    iHeartRadio Jingle Ball (2017) 1080i HDTV DD2.0 H.264-HDMania[​IMG]
    [​IMG]
    [​IMG]
    [​IMG] [​IMG] [​IMG] [​IMG]

    TrackList

    01. Taylor Swift - …Ready For It?
    02. Demi Lovato - Sorry Not Sorry
    03. Ed Sheeran - Shape of You
    04. Logic - 1-800-273-8255
    05. The Chainsmokers - Closer ft. Halsey

    06. Charlie Puth - How Long + Some short and sweet Merry Christmas song XD
    07. Taylor Swift feat. Ed Sheeran - End Game
    08. Niall Horan - Too Much To Ask
    09. Macklemore feat. Kesha - Good Old Days
    10. Liam Payne - Strip That Down
    11. Sam Smith - Too Good At Goodbyes
    12. Taylor Swift - Look What You Made Me Do


    General
    ID : 1 (0x1)
    Complete name : iHeartRadio Jingle Ball (2017) 1080i HDTV DD2.0 H.264-HDMania.ts
    Format : MPEG-TS
    File size : 6.24 GiB
    Duration : 1 h 2 min
    Overall bit rate mode : Variable
    Overall bit rate : 14.3 Mb/s

    Video
    ID : 4113 (0x1011)
    Menu ID : 1 (0x1)
    Format : AVC
    Format/Info : Advanced Video Codec
    Format profile : Main@L4
    Format settings, CABAC : Yes
    Format settings, ReFrames : 4 frames
    Codec ID : 27
    Duration : 1 h 2 min
    Bit rate mode : Variable
    Bit rate : 13.2 Mb/s
    Maximum bit rate : 20.0 Mb/s
    Width : 1 920 pixels
    Height : 1 080 pixels
    Display aspect ratio : 16:9
    Frame rate : 29.970 (30000/1001) FPS
    Color space : YUV
    Chroma subsampling : 4:2:0
    Bit depth : 8 bits
    Scan type : Interlaced
    Scan type, store method : Separated fields
    Scan order : Top Field First
    Bits/(Pixel*Frame) : 0.212
    Stream size : 5.76 GiB (92%)
    Color range : Limited
    Color primaries : BT.709
    Transfer characteristics : BT.709
    Matrix coefficients : BT.709

    Audio
    ID : 4352 (0x1100)
    Menu ID : 1 (0x1)
    Format : AC-3
    Format/Info : Audio Coding 3
    Format settings, Endianness : Big
    Codec ID : 129
    Duration : 1 h 2 min
    Bit rate mode : Constant
    Bit rate : 384 kb/s
    Channel(s) : 2 channels
    Channel positions : Front: L R
    Sampling rate : 48.0 kHz
    Frame rate : 31.250 FPS (1536 spf)
    Bit depth : 16 bits
    Compression mode : Lossy
    Stream size : 172 MiB (3%)
    Language : English
    Service kind : Complete Main

    Download:
    Hidden Content:
    You must either reply or click 'Like' to see the hidden information contained here.
    Capped By Me :victory:
     
    Last edited: Dec 28, 2017
  2. Loading...


  3. Red

    Red Well-Known Member

    Joined:
    Oct 3, 2013
    Messages:
    258
    Likes Received:
    753
    Thank you so much:love:
     
    pinky2 and manhunter like this.
  4. 777josem

    777josem ProRes 1080p LPCM

    Joined:
    Sep 1, 2014
    Messages:
    3,805
    Likes Received:
    3,694
    Thank you so much! :grin:
     
  5. alyssaprimp

    alyssaprimp Well-Known Member

    Joined:
    May 22, 2016
    Messages:
    623
    Likes Received:
    1,496
    thank you,wanna see the tracklist
     
  6. rgf72k

    rgf72k Founder Staff Member AdMiN Uploader

    Joined:
    Oct 1, 2013
    Messages:
    1,242
    Likes Received:
    18,873
    TrackList added! :super:
     
    Last edited: Dec 14, 2017
    alyssaprimp and 777josem like this.
  7. Thura Aung Kyaw

    Thura Aung Kyaw Member

    Joined:
    Dec 20, 2015
    Messages:
    445
    Likes Received:
    16
  8. 777josem

    777josem ProRes 1080p LPCM

    Joined:
    Sep 1, 2014
    Messages:
    3,805
    Likes Received:
    3,694
    Taylor Swift closing the ceremony :grin:

    [​IMG]
     
    rgf72k likes this.
  9. TaylorFan13

    TaylorFan13 Well-Known Member Capper

    Joined:
    Oct 19, 2014
    Messages:
    452
    Likes Received:
    1,914
    Thank you...
     
  10. meloman67

    meloman67 Active Member

    Joined:
    Jun 8, 2014
    Messages:
    890
    Likes Received:
    134
    Thank you
     
  11. Zanx94

    Zanx94 Member

    Joined:
    Nov 21, 2013
    Messages:
    229
    Likes Received:
    10
    Thank you
     
  12. papra

    papra Active Member

    Joined:
    Jan 11, 2017
    Messages:
    258
    Likes Received:
    28
    Thank you
     
  13. giampiale

    giampiale Member

    Joined:
    Oct 9, 2015
    Messages:
    163
    Likes Received:
    24
  14. Adaros

    Adaros Active Member

    Joined:
    Jun 5, 2016
    Messages:
    749
    Likes Received:
    95
    Thanks
     
  15. Hyrus

    Hyrus Arianator / Selenator / Victorian / Saxobeat / LBS Donor

    Joined:
    Feb 9, 2015
    Messages:
    1,472
    Likes Received:
    1,458
    Thanks a lot for Taylor & Demi :happy::)
     
  16. hungquocphan

    hungquocphan Active Member

    Joined:
    Nov 1, 2013
    Messages:
    777
    Likes Received:
    36
  17. killers23

    killers23 Active Member

    Joined:
    Feb 27, 2015
    Messages:
    945
    Likes Received:
    98
  18. KaiKawaii

    KaiKawaii Well-Known Member Uploader

    Joined:
    Jun 1, 2017
    Messages:
    581
    Likes Received:
    1,017
    zhanks
     
    Last edited by a moderator: Dec 15, 2017
  19. Bruno

    Bruno Well-Known Member

    Joined:
    Nov 3, 2013
    Messages:
    1,863
    Likes Received:
    134
    thank you so mutch
     
  20. power21580

    power21580 Member

    Joined:
    Apr 12, 2016
    Messages:
    217
    Likes Received:
    4
    Thank you so much!
     
  21. mattcardle

    mattcardle Active Member Donor

    Joined:
    Sep 12, 2014
    Messages:
    277
    Likes Received:
    29