WEB-RiP iHeartRadio 2014 Concert with Demi Lovato 720p WEBRip FLAC2.0 x264-TrollHD

Discussion in 'SD Live Performances' started by KaiKawaii, Mar 14, 2018.

  1. KaiKawaii

    KaiKawaii Well-Known Member Uploader

    Joined:
    Jun 1, 2017
    Messages:
    540
    Likes Received:
    888
    [​IMG]
    Code:
    General
    Unique ID                      : 220849963137209101698625082447180537482 (0xA62627DD6A4634D1AA70F6C5184F1E8A)
    Complete name                  : D:\Downloads\iHeartRadio.2014.Concert.with.Demi.Lovato.720p.WEBRip.FLAC2.0.x264-TrollHD\iHeartRadio 2014 Concert with Demi Lovato 720p WEBRip FLAC2.0 x264-TrollHD.mkv
    Format                         : Matroska
    Format version                 : Version 4 / Version 2
    File size                      : 1.50 GiB
    Duration                       : 46 min 58 s
    Overall bit rate mode          : Variable
    Overall bit rate               : 4 570 kb/s
    Encoded date                   : UTC 2015-11-29 20:42:51
    Writing application            : mkvmerge v8.3.0 ('Over the Horizon') 64bit
    Writing library                : libebml v1.3.1 + libmatroska v1.4.2
    
    Video
    ID                             : 1
    Format                         : AVC
    Format/Info                    : Advanced Video Codec
    Format profile                 : High@L4.1
    Format settings, CABAC         : Yes
    Format settings, RefFrames     : 5 frames
    Codec ID                       : V_MPEG4/ISO/AVC
    Duration                       : 46 min 58 s
    Bit rate                       : 4 021 kb/s
    Width                          : 1 280 pixels
    Height                         : 720 pixels
    Display aspect ratio           : 16:9
    Frame rate mode                : Constant
    Frame rate                     : 29.970 (30000/1001) FPS
    Color space                    : YUV
    Chroma subsampling             : 4:2:0
    Bit depth                      : 8 bits
    Scan type                      : Progressive
    Bits/(Pixel*Frame)             : 0.146
    Stream size                    : 1.32 GiB (88%)
    Writing library                : x264 core 146 r2538 121396c
    Encoding settings              : cabac=1 / ref=5 / deblock=1:-2:-2 / analyse=0x3:0x133 / me=umh / subme=10 / psy=1 / psy_rd=1.00:0.15 / mixed_ref=1 / me_range=48 / chroma_me=1 / trellis=2 / 8x8dct=1 / cqm=0 / deadzone=21,11 / fast_pskip=1 / chroma_qp_offset=-3 / threads=12 / lookahead_threads=2 / sliced_threads=0 / nr=0 / decimate=0 / interlaced=0 / bluray_compat=0 / constrained_intra=0 / bframes=8 / b_pyramid=2 / b_adapt=2 / b_bias=0 / direct=3 / weightb=1 / open_gop=0 / weightp=2 / keyint=300 / keyint_min=29 / scenecut=40 / intra_refresh=0 / rc_lookahead=60 / rc=crf / mbtree=1 / crf=18.0 / qcomp=0.70 / qpmin=0 / qpmax=69 / qpstep=4 / vbv_maxrate=300000 / vbv_bufsize=300000 / crf_max=0.0 / nal_hrd=none / filler=0 / ip_ratio=1.30 / aq=1:0.90
    Default                        : Yes
    Forced                         : No
    
    Audio
    ID                             : 2
    Format                         : FLAC
    Format/Info                    : Free Lossless Audio Codec
    Codec ID                       : A_FLAC
    Duration                       : 46 min 58 s
    Bit rate mode                  : Variable
    Bit rate                       : 547 kb/s
    Channel(s)                     : 2 channels
    Channel positions              : Front: L R
    Sampling rate                  : 48.0 kHz
    Frame rate                     : 11.719 FPS (4096 SPF)
    Bit depth                      : 16 bits
    Stream size                    : 184 MiB (12%)
    Writing library                : libFLAC 1.3.0 (UTC 2013-05-26)
    Language                       : English
    Default                        : Yes
    Forced                         : No
    Hidden Content:
    You must reply before you can see the hidden data contained here.
    Credits to TrollHD. :love:
    PS: Pictures updated May 22nd 2018.
     
    Last edited: May 22, 2018
  2. Loading...


  3. bruno1901

    bruno1901 Active Member

    Joined:
    Dec 9, 2015
    Messages:
    763
    Likes Received:
    96
    Thank You
     
  4. franklele

    franklele Well-Known Member

    Joined:
    Nov 11, 2013
    Messages:
    2,535
    Likes Received:
    152
    thank you very much
     
  5. CELOBRAZiL

    CELOBRAZiL Well-Known Member Capper V . I . P. Donor

    Joined:
    Oct 2, 2013
    Messages:
    5,667
    Likes Received:
    18,196
    Thanks! :)
     
  6. nickiexclusive

    nickiexclusive Video Maniac V . I . P. Uploader

    Joined:
    Sep 23, 2014
    Messages:
    2,606
    Likes Received:
    12,454
  7. Dfrazzer

    Dfrazzer Super Moderator Staff Member Super Moderator Capper V . I . P. Donor

    Joined:
    Nov 4, 2013
    Messages:
    5,539
    Likes Received:
    12,877
    Thank you so much.
     
  8. Maura

    Maura Well-Known Member

    Joined:
    Apr 7, 2014
    Messages:
    3,188
    Likes Received:
    101
    Thanks
     
  9. carlos69

    carlos69 Well-Known Member

    Joined:
    Dec 17, 2013
    Messages:
    1,285
    Likes Received:
    95
    Thanks
     
  10. mohamad

    mohamad Active Member

    Joined:
    Aug 15, 2016
    Messages:
    202
    Likes Received:
    25
    iHeartRadio 2014 Concert with Demi Lovato 720p WEBRip FLAC2.0 x264-TrollHD
     
  11. nino.navy

    nino.navy Well-Known Member

    Joined:
    May 30, 2014
    Messages:
    3,142
    Likes Received:
    184
    amazing ! thanks
     
  12. kiiwii

    kiiwii Member

    Joined:
    Oct 10, 2013
    Messages:
    379
    Likes Received:
    10
    thank you
     
  13. Lucky

    Lucky Active Member

    Joined:
    Sep 26, 2016
    Messages:
    638
    Likes Received:
    54
    thanks
     
  14. 鄭景文

    鄭景文 Member

    Joined:
    Dec 10, 2017
    Messages:
    305
    Likes Received:
    8
  15. uminomiyako

    uminomiyako Well-Known Member

    Joined:
    May 28, 2016
    Messages:
    2,759
    Likes Received:
    103
  16. rafaelpereira28

    rafaelpereira28 Member

    Joined:
    May 27, 2018
    Messages:
    89
    Likes Received:
    0
    Thanks Thanks
     
  17. arllenbrunoo

    arllenbrunoo Member

    Joined:
    Nov 23, 2015
    Messages:
    138
    Likes Received:
    1