CC Iggy Azalea - Work (MUCHHD-1080i-DD5.1-AmazonBoy) [CC]

Discussion in 'MUCH HD' started by DETOX, Apr 30, 2014.

  1. DETOX

    DETOX K-POP fan ♡ V . I . P. Uploader

    Joined:
    Feb 20, 2014
    Messages:
    3,000
    Likes Received:
    20,190

    [​IMG]


    Format : MPEG-TS
    File size : 285 MiB
    Duration : 3mn 45s
    Overall bit rate mode : Variable
    Overall bit rate : 10.6 Mbps
    Maximum Overall bit rate : 35.5 Mbps
    Movie name : New Music Videos
    Law rating : E

    Video
    ID : 4113 (0x1011)
    Menu ID : 1 (0x1)
    Format : MPEG Video
    Format version : Version 2
    Format profile : [email protected]
    Format settings, BVOP : Yes
    Format settings, Matrix : Custom
    Format settings, GOP : Variable
    Format settings, picture structure : Frame
    Codec ID : 2
    Duration : 3mn 45s
    Bit rate mode : Variable
    Bit rate : 9 719 Kbps
    Maximum bit rate : 24.0 Mbps
    Width : 1 920 pixels
    Height : 1 080 pixels
    Display aspect ratio : 16:9
    Frame rate : 29.970 fps
    Color space : YUV
    Chroma subsampling : 4:2:0
    Bit depth : 8 bits
    Scan type : Interlaced
    Scan order : Top Field First
    Compression mode : Lossy
    Bits/(Pixel*Frame) : 0.156
    Time code of first frame : 00:00:00;00
    Time code source : Group of pictures header
    Stream size : 261 MiB (91%)

    Audio
    ID : 4352 (0x1100)
    Menu ID : 1 (0x1)
    Format : AC-3
    Format/Info : Audio Coding 3
    Mode extension : CM (complete main)
    Format settings, Endianness : Big
    Codec ID : 129
    Duration : 3mn 45s
    Bit rate mode : Constant
    Bit rate : 384 Kbps
    Channel(s) : 6 channels
    Channel positions : Front: L C R, Side: L R, LFE
    Sampling rate : 48.0 KHz
    Bit depth : 16 bits
    Compression mode : Lossy
    Stream size : 10.3 MiB (4%)
    Language : English

    Text #1
    ID : 4113 (0x1011)-CC1
    Menu ID : 1 (0x1)
    Format : EIA-608
    Muxing mode : A/53 / DTVCC Transport
    Muxing mode, more info : Muxed in Video #1
    Duration : 3mn 45s
    Bit rate mode : Constant
    Stream size : 0.00 Byte (0%)

    Text #2
    ID : 4113 (0x1011)-1
    Menu ID : 1 (0x1)
    Format : EIA-708
    Muxing mode : A/53 / DTVCC Transport
    Muxing mode, more info : Muxed in Video #1
    Duration : 3mn 45s
    Bit rate mode : Constant
    Stream size : 0.00 Byte (0%)


    CAPPER: AmazonBoy / SERVER: MEGA / PASSWORD: DETOX

    Hidden Content:
    You must reply before you can see the hidden data contained here.
     
    Last edited by a moderator: Oct 22, 2015
    curg, dangtungson, jose luis and 2 others like this.
  2. Soroush

    Soroush Member

    Joined:
    Dec 5, 2013
    Messages:
    42
    Likes Received:
    0
  3. Joseph

    Joseph Active Member

    Joined:
    Dec 10, 2013
    Messages:
    744
    Likes Received:
    168
    Thank you very much! :D @DETOX
     
  4. GuruPitka

    GuruPitka Member

    Joined:
    Apr 3, 2014
    Messages:
    150
    Likes Received:
    2
    thank you DETOX
     
  5. MCTR

    MCTR Active Member

    Joined:
    Feb 23, 2014
    Messages:
    293
    Likes Received:
    38
    thanks
     
  6. kesh1000

    kesh1000 Member

    Joined:
    May 5, 2014
    Messages:
    75
    Likes Received:
    0
    Thanks
     
  7. ytyh

    ytyh Member

    Joined:
    Mar 30, 2014
    Messages:
    432
    Likes Received:
    4
    thx
     
  8. Nytrpo

    Nytrpo Member

    Joined:
    May 5, 2014
    Messages:
    189
    Likes Received:
    2
    Thanks bro!
     
  9. ialmostdo

    ialmostdo Member

    Joined:
    Feb 21, 2014
    Messages:
    49
    Likes Received:
    0
  10. jose luis

    jose luis Member

    Joined:
    Nov 25, 2013
    Messages:
    244
    Likes Received:
    15
  11. slill

    slill Active Member

    Joined:
    Jul 25, 2014
    Messages:
    1,028
    Likes Received:
    15
    thanks for sharing
     
  12. zzimorodok

    zzimorodok Member

    Joined:
    May 23, 2014
    Messages:
    108
    Likes Received:
    6
  13. Flaxdevil

    Flaxdevil Member

    Joined:
    May 25, 2014
    Messages:
    210
    Likes Received:
    8
  14. Vagabond

    Vagabond Member

    Joined:
    Jun 23, 2014
    Messages:
    171
    Likes Received:
    0
    Thanks!!
     
  15. Gabriel Teixeira Pinto

    Gabriel Teixeira Pinto Active Member

    Joined:
    Apr 16, 2014
    Messages:
    827
    Likes Received:
    152
  16. dangtungson

    dangtungson Member

    Joined:
    Feb 22, 2014
    Messages:
    203
    Likes Received:
    14
  17. gezegen

    gezegen New Member

    Joined:
    Sep 6, 2014
    Messages:
    14
    Likes Received:
    0
    Thanks!
     
  18. franklele

    franklele Well-Known Member

    Joined:
    Nov 11, 2013
    Messages:
    2,007
    Likes Received:
    98
    thank you
     
  19. curg

    curg Active Member

    Joined:
    Dec 6, 2013
    Messages:
    830
    Likes Received:
    31
    thnks
     
  20. Winged

    Winged Active Member

    Joined:
    Sep 19, 2014
    Messages:
    332
    Likes Received:
    32
    thanks