WEB-RiP Iggy Azalea - Fuck It Up (feat. Kash Doll) [YOUTUBE VP9 OPUS 2160p-Hossein Enr7que]

Discussion in 'YOUTUBE' started by Hossein Enr7que, Jul 21, 2019.

  1. Hossein Enr7que

    Hossein Enr7que Enriquette . ZQUAD . XO V . I . P. Uploader

    Joined:
    May 13, 2016
    Messages:
    1,630
    Likes Received:
    8,214
    [​IMG]
    Code:
    General
    Unique ID                                : 148876326628446810950914817982662125665 (0x7000899CA43B4229D0BDF80A6C0F2861)
    Complete name                            : C:\Users\Hossein\Downloads\Video\Iggy Azalea - Fuck It Up (feat. Kash Doll) [YOUTUBE VP9 OPUS 2160p-Hossein Enr7que].mkv
    Format                                   : Matroska
    Format version                           : Version 4
    File size                                : 561 MiB
    Duration                                 : 4 min 27 s
    Overall bit rate                         : 17.6 Mb/s
    Encoded date                             : UTC 2019-07-21 13:19:15
    Writing application                      : mkvmerge v29.0.0 ('Like It Or Not') 64-bit
    Writing library                          : libebml v1.3.6 + libmatroska v1.4.9 / IDMmkvlib0.1
    Language                                 : und
    
    Video
    ID                                       : 1
    Format                                   : VP9
    Codec ID                                 : V_VP9
    Duration                                 : 4 min 27 s
    Bit rate                                 : 17.5 Mb/s
    Width                                    : 3 840 pixels
    Height                                   : 2 160 pixels
    Display aspect ratio                     : 16:9
    Frame rate mode                          : Constant
    Frame rate                               : 23.976 (23976/1000) FPS
    Bits/(Pixel*Frame)                       : 0.088
    Stream size                              : 557 MiB (99%)
    Default                                  : Yes
    Forced                                   : No
    
    Audio
    ID                                       : 2
    Format                                   : Opus
    Codec ID                                 : A_OPUS
    Duration                                 : 4 min 27 s
    Bit rate                                 : 125 kb/s
    Channel(s)                               : 2 channels
    Channel layout                           : L R
    Sampling rate                            : 48.0 kHz
    Frame rate                               : 50.000 FPS (960 SPF)
    Compression mode                         : Lossy
    Stream size                              : 3.98 MiB (1%)
    Default                                  : Yes
    Forced                                   : No
    Server: MEGA
    Hidden Content:
    You must either reply or click 'Like' to see the hidden information contained here.
     
    zaq999, zetsu84, crash22 and 2 others like this.
  2. Loading...


  3. frostyheaven

    frostyheaven Member

    Joined:
    Jun 17, 2016
    Messages:
    259
    Likes Received:
    21
  4. nino.navy

    nino.navy Well-Known Member

    Joined:
    May 30, 2014
    Messages:
    4,059
    Likes Received:
    292
    thanksa lot
     
  5. kiraki

    kiraki Member

    Joined:
    Feb 8, 2019
    Messages:
    207
    Likes Received:
    20
    thanks
     
  6. koko_love

    koko_love Active Member

    Joined:
    Jun 3, 2015
    Messages:
    970
    Likes Received:
    43
    Thank you :)
     
  7. rhea

    rhea Well-Known Member

    Joined:
    Jan 6, 2014
    Messages:
    10,066
    Likes Received:
    1,794
    thank you
     
  8. tf135

    tf135 Well-Known Member

    Joined:
    Nov 14, 2014
    Messages:
    4,481
    Likes Received:
    245
    thanks
     
  9. fsrre

    fsrre Member

    Joined:
    Jun 19, 2019
    Messages:
    41
    Likes Received:
    1
    hanks
     
  10. zetsu84

    zetsu84 New Member

    Joined:
    Jul 10, 2019
    Messages:
    2
    Likes Received:
    0
    thankx
     
    Last edited by a moderator: Jul 23, 2019
  11. zaq999

    zaq999 Member

    Joined:
    Feb 8, 2019
    Messages:
    337
    Likes Received:
    8
    Combine the MKVToolNix GUI. high quality audio file.

    Audio
    ID : 1
    Format : AAC LC
    Format/Info : Advanced Audio Codec Low Complexity
    Codec ID : A_AAC-2
    Duration : 4 min 27 s
    Bit rate : 320 kb/s
    Channel(s) : 2 channels
    Channel layout : L R
    Sampling rate : 48.0 kHz
    Frame rate : 46.875 FPS (1024 SPF)
    Compression mode : Lossy
    Stream size : 10.2 MiB (100%)
    Language : English

    http://www.mediafire.com/file/8297v...fficial_Music_Video%29_ft._Kash_Doll.mka/file
     
  12. obeyisforjerks12

    obeyisforjerks12 Member

    Joined:
    Feb 23, 2019
    Messages:
    75
    Likes Received:
    1
  13. tn5656

    tn5656 Well-Known Member

    Joined:
    Jan 20, 2017
    Messages:
    6,543
    Likes Received:
    286
    Thank you !!
     
  14. hubaib

    hubaib Member

    Joined:
    May 2, 2018
    Messages:
    150
    Likes Received:
    6
    big thanks
     
  15. indreams2011

    indreams2011 Active Member

    Joined:
    Dec 10, 2014
    Messages:
    799
    Likes Received:
    34
    thanks
     
  16. muratguren

    muratguren Well-Known Member

    Joined:
    Mar 6, 2016
    Messages:
    1,925
    Likes Received:
    42
    thank you
     
  17. Sidney Calado

    Sidney Calado Member

    Joined:
    Oct 12, 2017
    Messages:
    251
    Likes Received:
    7
    ddd
    ddddddddddddd