MASTER Iggy Azalea ft. Charlie XCX - Fancy (2014-AAC-Master-1080p-777josem) ProRes Original

Discussion in 'MASTER & MASTER RIP' started by 777josem, Jul 28, 2017.

  1. tn5656

    tn5656 Well-Known Member

    Joined:
    Jan 20, 2017
    Messages:
    3,019
    Likes Received:
    114
    thanks a lot
     
  2. Arteta91

    Arteta91 Member

    Joined:
    Aug 2, 2017
    Messages:
    489
    Likes Received:
    6
  3. alifaxa

    alifaxa Active Member

    Joined:
    Oct 21, 2015
    Messages:
    913
    Likes Received:
    28
  4. Leonardo7777777

    Leonardo7777777 Member

    Joined:
    Jan 3, 2016
    Messages:
    418
    Likes Received:
    19
    Thanks
     
  5. kolass

    kolass Member

    Joined:
    Dec 15, 2017
    Messages:
    98
    Likes Received:
    2
    thanks
     
  6. theclimb

    theclimb Well-Known Member

    Joined:
    Dec 16, 2014
    Messages:
    1,161
    Likes Received:
    180
    thanks
     
  7. htaylinnoo

    htaylinnoo Member

    Joined:
    Mar 9, 2018
    Messages:
    434
    Likes Received:
    7
    M
    ember
     
  8. bezvezesad

    bezvezesad Member

    Joined:
    May 25, 2017
    Messages:
    782
    Likes Received:
    17
  9. fullhdv

    fullhdv Member

    Joined:
    Jan 20, 2016
    Messages:
    132
    Likes Received:
    5
    Awesome
     
  10. Jhguh

    Jhguh Member

    Joined:
    Feb 27, 2018
    Messages:
    59
    Likes Received:
    5
    thanks[​IMG]
    [​IMG]
    [​IMG]
    [​IMG]

    Format : MPEG-4
    Format profile : Base Media / Version 2
    Codec ID : mp42 (mp42/mp41)

    File size : 1.17 GiB
    Duration : 3 min 20 s
    Overall bit rate mode : Variable

    Overall bit rate : 49.9 Mb/s
    Encoded date : UTC 2017-07-28 22:22:00
    Tagged date : UTC 2017-07-28 22:23:33
    ©TIM : 00:00:00:00
    ©TSC : 24000
    ©TSZ : 1001

    Video
    ID : 1
    Format : AVC
    Format/Info : Advanced Video Codec

    Format profile : High@L4.1
    Format settings, CABAC : Yes
    Format settings, ReFrames : 4 frames
    Codec ID : avc1
    Codec ID/Info : Advanced Video Coding
    Duration : 3 min 20 s
    Bit rate mode : Variable
    Bit rate : 49.6 Mb/s
    Maximum bit rate : 52.0 Mb/s
    Width : 1 920 pixels
    Height : 1 080 pixels
    Display aspect ratio : 16:9
    Frame rate mode : Constant
    Frame rate : 23.976 (24000/1001) FPS

    Standard : NTSC
    Color space : YUV
    Chroma subsampling : 4:2:0
    Bit depth : 8 bits

    Scan type : Progressive
    Bits/(Pixel*Frame) : 0.997
    Stream size : 1.16 GiB (99%)
    Language : English
    Encoded date : UTC 2017-07-28 22:22:00
    Tagged date : UTC 2017-07-28 22:22:00
    Color range : Limited
    Color primaries : BT.709
    Transfer characteristics : BT.709
    Matrix coefficients : BT.709

    Audio
    ID : 2
    Format : AAC
    Format/Info : Advanced Audio Codec
    Format profile : LC
    Codec ID : 40
    Duration : 3 min 20 s
    Source duration : 3 min 20 s
    Bit rate mode : Variable
    Bit rate : 317 kb/s
    Maximum bit rate : 423 kb/s
    Channel(s) : 2 channels
    Channel positions : Front: L R
    Sampling rate : 48.0 kHz
    Frame rate : 46.875 FPS (1024 spf)
    Compression mode : Lossy
    Stream size : 7.59 MiB (1%)
    Source stream size : 7.59 MiB (1%)
    Language : English
    Encoded date : UTC 2017-07-28 22:22:00
    Tagged date : UTC 2017-07-28 22:22:00

    ***Hidden content cannot be quoted.***
    [/QUOTE]
     
  11. ETAOI

    ETAOI Member

    Joined:
    Feb 13, 2017
    Messages:
    386
    Likes Received:
    2
    !!!!!!!!!!!!!!
     
  12. jeaneyne

    jeaneyne Well-Known Member

    Joined:
    Oct 21, 2013
    Messages:
    1,154
    Likes Received:
    541
  13. artpopboi1

    artpopboi1 Member

    Joined:
    Jun 19, 2017
    Messages:
    210
    Likes Received:
    8
  14. christian Cnz

    christian Cnz Member

    Joined:
    Jan 7, 2018
    Messages:
    99
    Likes Received:
    4
    GDFGFDGDFG
     
  15. Eddie Solo

    Eddie Solo Active Member

    Joined:
    Oct 16, 2013
    Messages:
    497
    Likes Received:
    26