Iggy Azalea (feat. Rita Ora) - Black Window [LPCM-Master-ProRes-1080p]

Discussion in 'PRORES' started by DETOX, May 22, 2015.

  1. DETOX

    DETOX Well-Known Member V . I . P. Uploader

    Joined:
    Feb 20, 2014
    Messages:
    2,752
    Likes Received:
    13,912
    Iggy Azalea (feat. Rita Ora) - Black Window [LPCM-Master-ProRes-1080p]
    [​IMG]
    General
    Complete name : Iggy Azalea (feat. Rita Ora) - Black Window [LPCM-Master-ProRes-1080p].mov
    Format : MPEG-4
    Format profile : QuickTime
    Codec ID : qt
    File size : 6.55 GiB
    Duration : 5mn 35s
    Overall bit rate mode : Variable
    Overall bit rate : 168 Mbps
    Encoded date : UTC 2014-08-22 11:02:41
    Tagged date : UTC 2014-09-04 08:53:55
    Writing library : Apple QuickTime 7.7.1
    com.apple.quicktime.player.movie.audio.m : (Binary)

    Video
    ID : 4
    Format : ProRes
    Format version : Version 0
    Format profile : 422 HQ
    Codec ID : apch
    Duration : 5mn 35s
    Bit rate mode : Variable
    Bit rate : 165 Mbps
    Width : 1 920 pixels
    Clean aperture width : 1 888 pixels
    Height : 1 080 pixels
    Clean aperture height : 1 062 pixels
    Display aspect ratio : 16:9
    Frame rate mode : Constant
    Frame rate : 23.976 fps
    Color space : YUV
    Chroma subsampling : 4:2:2
    Scan type : Progressive
    Bits/(Pixel*Frame) : 3.328
    Stream size : 6.46 GiB (99%)
    Writing library : Apple
    Language : English
    Encoded date : UTC 2014-09-04 08:53:55
    Tagged date : UTC 2014-09-04 08:53:55
    Color primaries : BT.709
    Transfer characteristics : BT.709
    Matrix coefficients : BT.709
    matrix_coefficients_Original : BT.709

    Audio
    ID : 2
    Format : PCM
    Format settings, Endianness : Big
    Format settings, Sign : Unsigned
    Codec ID : in24
    Duration : 5mn 35s
    Bit rate mode : Constant
    Bit rate : 2 304 Kbps
    Channel(s) : 2 channels
    Channel positions : Front: L R
    Sampling rate : 48.0 KHz
    Bit depth : 24 bits
    Stream size : 92.0 MiB (1%)
    Language : English
    Encoded date : UTC 2014-08-22 11:02:06
    Tagged date : UTC 2014-09-04 08:53:55

    Other
    ID : 3
    Type : Time code
    Format : QuickTime TC
    Duration : 5mn 35s
    Time code of first frame : 00:59:50:00
    Time code, striped : Yes
    Language : English
    Encoded date : UTC 2014-08-22 11:02:06
    Tagged date : UTC 2014-09-04 08:53:55

    SERVER: MEGA UPTOBOX / PASSWORD: DETOX
    Hidden Content:
    You must reply before you can see the hidden data contained here.
     
    Last edited: May 22, 2015
  2. Loading...


  3. 777josem

    777josem Well-Known Member Uploader

    Joined:
    Sep 1, 2014
    Messages:
    2,424
    Likes Received:
    1,294
    :DEsto es un sueño, mis dos vídeos favoritos en [LPCM-Master-ProRes-1080p] Thank you so much DETOX!
     
  4. Mwhaha

    Mwhaha Member

    Joined:
    Nov 17, 2013
    Messages:
    61
    Likes Received:
    0
    sick!!! :D
     
  5. multimediafm

    multimediafm Well-Known Member Donor

    Joined:
    Mar 27, 2014
    Messages:
    8,290
    Likes Received:
    341
    Thanks :)
    Iggy Azalea (feat. Rita Ora) - Black Window [LPCM-Master-ProRes-1080p]
     
  6. franklele

    franklele Well-Known Member

    Joined:
    Nov 11, 2013
    Messages:
    1,658
    Likes Received:
    69
    thank you very much
     
  7. sanad khandelwal

    sanad khandelwal Well-Known Member

    Joined:
    Mar 14, 2014
    Messages:
    178
    Likes Received:
    255
    Thanks...
     
  8. RiP

    RiP Member

    Joined:
    Jan 19, 2014
    Messages:
    65
    Likes Received:
    2
    thank you =)
     
  9. Jsnow

    Jsnow New Member

    Joined:
    May 27, 2015
    Messages:
    11
    Likes Received:
    0
    thank you !
     
  10. Grad Catalin

    Grad Catalin Member

    Joined:
    May 22, 2015
    Messages:
    89
    Likes Received:
    5
  11. krest

    krest Member

    Joined:
    May 31, 2015
    Messages:
    210
    Likes Received:
    2
    Thank you so much!
     
  12. GSRemast21

    GSRemast21 Well-Known Member

    Joined:
    Dec 6, 2014
    Messages:
    451
    Likes Received:
    359
  13. Dave

    Dave Well-Known Member

    Joined:
    Jun 2, 2015
    Messages:
    541
    Likes Received:
    266
     
  14. klaus

    klaus Member

    Joined:
    Sep 11, 2014
    Messages:
    779
    Likes Received:
    9
    thank you
     
  15. NicoleScherzy

    NicoleScherzy Well-Known Member

    Joined:
    May 14, 2015
    Messages:
    870
    Likes Received:
    347
    Thanks a lot
     
  16. Antony

    Antony Active Member

    Joined:
    Nov 11, 2013
    Messages:
    737
    Likes Received:
    168
    thank you!!
     
  17. noobster

    noobster Member

    Joined:
    Mar 16, 2014
    Messages:
    129
    Likes Received:
    2
    good job, cheers
     
  18. Dreamer

    Dreamer ♫ It's Britney Bitch ♫ Capper Uploader

    Joined:
    Dec 4, 2014
    Messages:
    2,216
    Likes Received:
    1,932
    Thank you
     
  19. furkan

    furkan Member

    Joined:
    Oct 9, 2015
    Messages:
    194
    Likes Received:
    3
    thnks youuu
     
  20. yhkim

    yhkim Active Member

    Joined:
    Nov 19, 2013
    Messages:
    668
    Likes Received:
    6
    thank you so much
     
  21. Anggi Edwarsa

    Anggi Edwarsa Active Member

    Joined:
    May 3, 2014
    Messages:
    383
    Likes Received:
    129
    thaank you..