Iggy Azalea feat. Rita Ora - Black Widow (One.by HD 1080i) - dan93star

Discussion in 'One.by HD' started by Dreamer, Nov 5, 2015.

  1. Dreamer

    Dreamer ♫ It's Britney Bitch ♫ Capper Uploader

    Joined:
    Dec 4, 2014
    Messages:
    2,128
    Likes Received:
    1,782
    Iggy Azalea feat. Rita Ora - Black Widow (One.by HD)

    [​IMG]

    General
    ID : 0 (0x0)
    Complete name : C:\Users\DK\Desktop\Iggy Azalea feat. Rita Ora - Black Widow (One.by HD).ts
    Format : MPEG-TS
    File size : 186 MiB
    Duration : 5mn 29s
    Overall bit rate mode : Variable
    Overall bit rate : 4 720 Kbps
    Maximum Overall bit rate : 3 522 Kbps

    Video
    ID : 4113 (0x1011)
    Menu ID : 1 (0x1)
    Format : AVC
    Format/Info : Advanced Video Codec
    Format profile : [email protected]
    Format settings, CABAC : Yes
    Format settings, ReFrames : 2 frames
    Codec ID : 27
    Duration : 5mn 30s
    Bit rate : 4 332 Kbps
    Width : 1 920 pixels
    Height : 1 080 pixels
    Display aspect ratio : 16:9
    Frame rate : 25.000 fps
    Color space : YUV
    Chroma subsampling : 4:2:0
    Bit depth : 8 bits
    Scan type : Progressive
    Bits/(Pixel*Frame) : 0.084
    Stream size : 170 MiB (92%)

    Audio
    ID : 4352 (0x1100)
    Menu ID : 1 (0x1)
    Format : AC-3
    Format/Info : Audio Coding 3
    Mode extension : CM (complete main)
    Format settings, Endianness : Big
    Codec ID : 129
    Duration : 5mn 30s
    Bit rate mode : Constant
    Bit rate : 192 Kbps
    Channel(s) : 2 channels
    Channel positions : Front: L R
    Sampling rate : 48.0 KHz
    Compression mode : Lossy
    Stream size : 7.55 MiB (4%)

    Capped by be

    Hidden Content:
    You must reply before you can see the hidden data contained here.
     
    DETOX, wolf2015, rhea and 2 others like this.
  2. 777josem

    777josem Well-Known Member Uploader

    Joined:
    Sep 1, 2014
    Messages:
    2,328
    Likes Received:
    1,250
    Thank you so much!
     
  3. rhea

    rhea Well-Known Member

    Joined:
    Jan 6, 2014
    Messages:
    5,193
    Likes Received:
    250
    thank you so much
     
  4. Crusha

    Crusha Well-Known Member Capper

    Joined:
    Oct 15, 2014
    Messages:
    2,349
    Likes Received:
    2,062
    thank you
     
  5. wolf2015

    wolf2015 Member

    Joined:
    Jan 1, 2015
    Messages:
    618
    Likes Received:
    20
    thank you
     
  6. 3e11o

    3e11o New Member

    Joined:
    Sep 27, 2016
    Messages:
    6
    Likes Received:
    0
    iutz8i8i