Iggy Azalea (feat. Charli XCX) - Fancy [LPCM-Master-ProRes-1080p]

Discussion in 'PRORES' started by DETOX, May 22, 2015.

  1. DETOX

    DETOX Well-Known Member V . I . P. Uploader

    Joined:
    Feb 20, 2014
    Messages:
    2,788
    Likes Received:
    15,665
    Iggy Azalea (feat. Charli XCX) - Fancy [LPCM-Master-ProRes-1080p]
    [​IMG]
    General
    Complete name : Iggy Azalea (feat. Charli XCX) - Fancy [LPCM-Master-ProRes-1080p].mov
    Format : MPEG-4
    Format profile : QuickTime
    Codec ID : qt
    File size : 3.99 GiB
    Duration : 3mn 20s
    Overall bit rate mode : Variable
    Overall bit rate : 171 Mbps
    Encoded date : UTC 2014-03-03 23:20:49
    Tagged date : UTC 2014-03-03 23:25:40
    Writing library : Apple QuickTime
    Media/UUID : 1921C791-04A5-4110-B5B6-4E6B3D9F44F6

    Video
    ID : 1
    Format : ProRes
    Format version : Version 0
    Format profile : 422 HQ
    Codec ID : apch
    Duration : 3mn 20s
    Bit rate mode : Variable
    Bit rate : 169 Mbps
    Width : 1 920 pixels
    Clean aperture width : 1 888 pixels
    Height : 1 080 pixels
    Clean aperture height : 1 062 pixels
    Display aspect ratio : 16:9
    Clean aperture display aspect ratio : 16:9
    Frame rate mode : Constant
    Frame rate : 23.976 fps
    Color space : YUV
    Chroma subsampling : 4:2:2
    Scan type : Progressive
    Bits/(Pixel*Frame) : 3.407
    Stream size : 3.95 GiB (99%)
    Writing library : Apple
    Language : English
    Encoded date : UTC 2014-03-03 23:20:49
    Tagged date : UTC 2014-03-03 23:25:40
    Color primaries : BT.709
    Transfer characteristics : BT.709
    Matrix coefficients : BT.709
    matrix_coefficients_Original : BT.709

    Audio
    ID : 2
    Format : PCM
    Format settings, Endianness : Little
    Format settings, Sign : Signed
    Codec ID : sowt
    Duration : 3mn 20s
    Bit rate mode : Constant
    Bit rate : 1 536 Kbps
    Channel(s) : 2 channels
    Channel positions : Front: L R
    Sampling rate : 48.0 KHz
    Bit depth : 16 bits
    Stream size : 36.7 MiB (1%)
    Language : English
    Encoded date : UTC 2014-03-03 23:20:49
    Tagged date : UTC 2014-03-03 23:25:40

    Other
    ID : 3
    Type : Time code
    Format : QuickTime TC
    Duration : 3mn 20s
    Time code of first frame : 01:00:00:00
    Time code, striped : Yes
    Language : English
    Encoded date : UTC 2014-03-03 23:25:40
    Tagged date : UTC 2014-03-03 23:25:40

    SERVER: MEGA / PASSWORD: DETOX
    Hidden Content:
    You must reply before you can see the hidden data contained here.
     
    Last edited: May 22, 2015
    lmao, Endrafigh, rutpun15 and 15 others like this.
  2. Loading...


  3. KallumLavigne

    KallumLavigne Well-Known Member

    Joined:
    Nov 18, 2013
    Messages:
    676
    Likes Received:
    1,189
    Omg finally thank you!
     
    vishalrangpuri001 likes this.
  4. 777josem

    777josem Well-Known Member Uploader

    Joined:
    Sep 1, 2014
    Messages:
    2,557
    Likes Received:
    1,380
    :DOMG! Thank you so much DETOX!
     
  5. multimediafm

    multimediafm Well-Known Member Donor

    Joined:
    Mar 27, 2014
    Messages:
    8,557
    Likes Received:
    361
    Thanks :)
    Iggy Azalea (feat. Charli XCX) - Fancy [LPCM-Master-ProRes-1080p]
     
  6. quake2

    quake2 Active Member

    Joined:
    Oct 11, 2014
    Messages:
    860
    Likes Received:
    35
    ok thx
     
  7. wkwkwaku

    wkwkwaku Active Member

    Joined:
    May 23, 2015
    Messages:
    616
    Likes Received:
    71
    thank you for sharing, I really love this video
     
  8. J_Pablo

    J_Pablo Active Member

    Joined:
    Nov 27, 2013
    Messages:
    468
    Likes Received:
    85
    Thanks love the song.. You already know!
     
  9. joelh20101

    joelh20101 Well-Known Member

    Joined:
    Nov 4, 2013
    Messages:
    1,459
    Likes Received:
    139
    thanks for this
     
  10. Dreamer

    Dreamer Lana Del Rey ♥ Capper Uploader

    Joined:
    Dec 4, 2014
    Messages:
    2,391
    Likes Received:
    2,404
    Thank you so much
     
  11. tf135

    tf135 Well-Known Member

    Joined:
    Nov 14, 2014
    Messages:
    1,712
    Likes Received:
    103
    thank you
     
  12. GSRemast21

    GSRemast21 Well-Known Member

    Joined:
    Dec 6, 2014
    Messages:
    451
    Likes Received:
    387
  13. blackpuddingbertha

    blackpuddingbertha New Member

    Joined:
    Jun 7, 2015
    Messages:
    4
    Likes Received:
    0
    Fantastic video!
     
  14. Dave

    Dave Well-Known Member

    Joined:
    Jun 2, 2015
    Messages:
    554
    Likes Received:
    297
     
  15. klaus

    klaus Member

    Joined:
    Sep 11, 2014
    Messages:
    823
    Likes Received:
    10
    thank you
     
  16. kamikkadze

    kamikkadze Member

    Joined:
    Jun 12, 2015
    Messages:
    50
    Likes Received:
    1
    Thank you very much !!!
     
  17. SpyrosMonster

    SpyrosMonster Active Member

    Joined:
    Jan 27, 2014
    Messages:
    664
    Likes Received:
    115
    Thank you
     
  18. Eddie Solo

    Eddie Solo Member

    Joined:
    Oct 16, 2013
    Messages:
    319
    Likes Received:
    11
    thank you
     
  19. Eddie Solo

    Eddie Solo Member

    Joined:
    Oct 16, 2013
    Messages:
    319
    Likes Received:
    11
    thank you
     
  20. kevin roman

    kevin roman Well-Known Member

    Joined:
    Jun 1, 2015
    Messages:
    264
    Likes Received:
    398
    gracias.. full video :)
     
  21. ivandario

    ivandario Member

    Joined:
    Jun 27, 2015
    Messages:
    105
    Likes Received:
    2
    thank you