Icona Pop - All Night (M3HD-1080i-DD5.1-AmazonBoy) [CC]

Discussion in 'M3 HD' started by rgf72k, Nov 28, 2013.

  1. rgf72k

    rgf72k Founder Staff Member AdMiN

    Joined:
    Oct 1, 2013
    Messages:
    1,020
    Likes Received:
    15,109
    [​IMG]

    Code:
    General
    ID                                      : 1 (0x1)
    Complete name                            : Icona_Pop_- _All_Night_(M3HD-1080i-AmazonBoy).ts
    Format                                  : MPEG-TS
    File size                                : 301 MiB
    Duration                                : 3mn 2s
    Overall bit rate mode                    : Variable
    Overall bit rate                        : 13.9 Mbps
    
    Video
    ID                                      : 1201 (0x4B1)
    Menu ID                                  : 1 (0x1)
    Format                                  : MPEG Video
    Format version                          : Version 2
    Format profile                          : [email protected]
    Format settings, BVOP                    : Yes
    Format settings, Matrix                  : Custom
    Format settings, GOP                    : Variable
    Codec ID                                : 2
    Duration                                : 3mn 2s
    Bit rate mode                            : Variable
    Bit rate                                : 12.8 Mbps
    Maximum bit rate                        : 24.0 Mbps
    Width                                    : 1 920 pixels
    Height                                  : 1 080 pixels
    Display aspect ratio                    : 16:9
    Frame rate                              : 29.970 fps
    Color space                              : YUV
    Chroma subsampling                      : 4:2:0
    Bit depth                                : 8 bits
    Compression mode                        : Lossy
    Bits/(Pixel*Frame)                      : 0.206
    Time code of first frame                : 00:00:00;00
    Time code source                        : Group of pictures header
    Stream size                              : 278 MiB (92%)
    Writing library                          : (c) 1998-2012 Womble Multimedia, Inc. / MPEG Video Wizard DVD 5.0.1.100 (03/2011) / Sep 22 2012
    
    Audio
    ID                                      : 1202 (0x4B2)
    Menu ID                                  : 1 (0x1)
    Format                                  : AC-3
    Format/Info                              : Audio Coding 3
    Mode extension                          : CM (complete main)
    Format settings, Endianness              : Big
    Codec ID                                : 129
    Duration                                : 3mn 2s
    Bit rate mode                            : Constant
    Bit rate                                : 384 Kbps
    Channel(s)                              : 6 channels
    Channel positions                        : Front: L C R, Side: L R, LFE
    Sampling rate                            : 48.0 KHz
    Bit depth                                : 16 bits
    Compression mode                        : Lossy
    Stream size                              : 8.33 MiB (3%)
    Language                                : English
    
    Text #1
    ID                                      : 1201 (0x4B1)-CC1
    Menu ID                                  : 1 (0x1)
    Format                                  : EIA-608
    Muxing mode                              : A/53 / DTVCC Transport
    Muxing mode, more info                  : Muxed in Video #1
    Duration                                : 3mn 2s
    Bit rate mode                            : Constant
    Stream size                              : 0.00 Byte (0%)
    
    Text #2
    ID                                      : 1201 (0x4B1)-1
    Menu ID                                  : 1 (0x1)
    Format                                  : EIA-708
    Muxing mode                              : A/53 / DTVCC Transport
    Muxing mode, more info                  : Muxed in Video #1
    Duration                                : 3mn 2s
    Bit rate mode                            : Constant
    Stream size                              : 0.00 Byte (0%)
    


    Download:
    Hidden Content:
    You must either reply or click 'Like' to see the hidden information contained here.


    Password: sharemania.net



    Capper: AmazonBoy
     
    Zeeh, opened, grepitu and 2 others like this.
  2. xptmxm

    xptmxm Member

    Joined:
    Nov 20, 2013
    Messages:
    283
    Likes Received:
    11
    thanks
     
  3. slill

    slill Active Member

    Joined:
    Jul 25, 2014
    Messages:
    1,028
    Likes Received:
    14
    thanks for sharing
     
  4. Dreamer

    Dreamer Lana Del Rey ♥ Capper V . I . P. Uploader

    Joined:
    Dec 4, 2014
    Messages:
    2,647
    Likes Received:
    3,164
    File was deleted :(
     
  5. Zeeh

    Zeeh Member

    Joined:
    Mar 20, 2015
    Messages:
    582
    Likes Received:
    12
    Yep no longer working ^ thanks for the efforts.
     
  6. DEJOTA

    DEJOTA Member

    Joined:
    Nov 25, 2015
    Messages:
    40
    Likes Received:
    0
    DELETED
     
  7. Pavulon

    Pavulon Well-Known Member

    Joined:
    Mar 22, 2016
    Messages:
    2,261
    Likes Received:
    175
    thanks