HYOMIN (T-ARA) - MANGO (Bugs! 1080p)

Discussion in 'Music Videos' started by DETOX, Sep 13, 2018 at 3:14 PM.

  1. DETOX

    DETOX NEYDE FAN ❤️ V . I . P. Uploader

    Joined:
    Feb 20, 2014
    Messages:
    5,082
    Likes Received:
    45,475
    [​IMG]
    Code:
    General
    Complete name               : HYOMIN - MANGO (Bugs! 1080p).mp4
    Format                      : MPEG-4
    Format profile              : Base Media / Version 2
    Codec ID                    : mp42 (mp42/mp41)
    File size                   : 737 MiB
    Duration                    : 3 min 11 s
    Overall bit rate mode       : Variable
    Overall bit rate            : 32.2 Mb/s
    Encoded date                : UTC 2018-09-11 16:16:25
    Tagged date                 : UTC 2018-09-11 16:16:35
    TIM                         : 00:00:00:00
    TSC                         : 24000
    TSZ                         : 1001
    
    Video
    ID                          : 1
    Format                      : AVC
    Format/Info                 : Advanced Video Codec
    Format profile              : Main@L4.2
    Format settings             : CABAC / 3 Ref Frames
    Format settings, CABAC      : Yes
    Format settings, ReFrames   : 3 frames
    Format settings, GOP        : M=4, N=24
    Codec ID                    : avc1
    Codec ID/Info               : Advanced Video Coding
    Duration                    : 3 min 11 s
    Source duration             : 3 min 11 s
    Bit rate                    : 32.1 Mb/s
    Width                       : 1 920 pixels
    Height                      : 1 080 pixels
    Display aspect ratio        : 16:9
    Frame rate mode             : Variable
    Frame rate                  : 23.976 (24000/1001) FPS
    Minimum frame rate          : 23.976 FPS
    Maximum frame rate          : 24.000 FPS
    Standard                    : NTSC
    Color space                 : YUV
    Chroma subsampling          : 4:2:0
    Bit depth                   : 8 bits
    Scan type                   : Progressive
    Bits/(Pixel*Frame)          : 0.645
    Stream size                 : 733 MiB (99%)
    Source stream size          : 733 MiB (99%)
    Language                    : English
    Encoded date                : UTC 2018-09-11 16:16:25
    Tagged date                 : UTC 2018-09-11 16:16:25
    Color range                 : Limited
    mdhd_Duration               : 191733
    Codec configuration box     : avcC
    
    Audio
    ID                          : 2
    Format                      : AAC LC
    Format/Info                 : Advanced Audio Codec Low Complexity
    Codec ID                    : mp4a-40-2
    Duration                    : 3 min 11 s
    Source duration             : 3 min 11 s
    Bit rate mode               : Variable
    Bit rate                    : 192 kb/s
    Maximum bit rate            : 300 kb/s
    Channel(s)                  : 2 channels
    Channel layout              : L R
    Sampling rate               : 48.0 kHz
    Frame rate                  : 46.875 FPS (1024 SPF)
    Compression mode            : Lossy
    Stream size                 : 4.33 MiB (1%)
    Source stream size          : 4.33 MiB (1%)
    Language                    : English
    Encoded date                : UTC 2018-09-11 16:16:25
    Tagged date                 : UTC 2018-09-11 16:16:25
    mdhd_Duration               : 191787
    Server: Mediafire
    Password: DETOX

    Hidden Content:
    You must either reply or click 'Like' to see the hidden information contained here.
     
    elie likes this.
  2. Loading...


  3. kana3245

    kana3245 Member

    Joined:
    Aug 15, 2016
    Messages:
    679
    Likes Received:
    20