WEB-RiP Hustle Gang feat. GFMBRYYCE, Young Dro, T.I. - Do No Wrong (1350p Youtube)

Discussion in 'YOUTUBE' started by AlexK, Oct 12, 2017.

  1. AlexK

    AlexK New Member

    Joined:
    Sep 13, 2017
    Messages:
    14
    Likes Received:
    1
    [​IMG]
    General
    Unique ID : 252765064898817532273192729512955748449 (0xBE28C7DE7821AE38A4439E77549A2061)
    Complete name : Hustle Gang feat. GFMBRYYCE, Young Dro, T.I. - Do No Wrong (1350p Youtube).mkv
    Format : Matroska
    Format version : Version 4 / Version 2
    File size : 208 MiB
    Duration : 4 min 42 s
    Overall bit rate : 6 188 kb/s
    Encoded date : UTC 2017-10-12 09:16:08
    Writing application : mkvmerge v16.0.0 ('Protest') 64-bit
    Writing library : libebml v1.3.5 + libmatroska v1.4.8

    Video
    ID : 1
    Format : AVC
    Format/Info : Advanced Video Codec
    Format profile : [email protected]
    Format settings, CABAC : Yes
    Format settings, RefFrames : 3 frames
    Codec ID : V_MPEG4/ISO/AVC
    Duration : 4 min 42 s
    Bit rate : 6 060 kb/s
    Width : 2 560 pixels
    Height : 1 350 pixels
    Display aspect ratio : 1.896
    Frame rate mode : Constant
    Frame rate : 23.976 (24000/1001) FPS
    Color space : YUV
    Chroma subsampling : 4:2:0
    Bit depth : 8 bits
    Scan type : Progressive
    Bits/(Pixel*Frame) : 0.073
    Stream size : 204 MiB (98%)
    Default : Yes
    Forced : No
    Color range : Limited
    Color primaries : BT.709
    Transfer characteristics : BT.709
    Matrix coefficients : BT.709

    Audio
    ID : 2
    Format : AAC
    Format/Info : Advanced Audio Codec
    Format profile : LC
    Codec ID : A_AAC
    Duration : 4 min 42 s
    Bit rate : 126 kb/s
    Channel(s) : 2 channels
    Channel positions : Front: L R
    Sampling rate : 44.1 kHz
    Frame rate : 43.066 FPS (1024 SPF)
    Compression mode : Lossy
    Stream size : 4.23 MiB (2%)
    Default : Yes
    Forced : No

    Hidden Content:
    You must reply before you can see the hidden data contained here.
     
  2. DiVenturas

    DiVenturas Well-Known Member

    Joined:
    Oct 21, 2015
    Messages:
    2,733
    Likes Received:
    139