DVD Hilary Duff - All About You (Promo Only) [VOB]

Discussion in 'SD' started by claudio1301, Aug 4, 2020.

  1. claudio1301

    claudio1301 Well-Known Member

    Joined:
    Oct 2, 2018
    Messages:
    1,390
    Likes Received:
    2,928
    [​IMG]
    Code:
    General
    Complete name                  : Hilary Duff - All About You (Promo Only).VOB
    Format                         : MPEG-PS
    File size                      : 141 MiB
    Duration                       : 2 min 45 s
    Overall bit rate mode          : Variable
    Overall bit rate               : 7 181 kb/s
    
    Video
    ID                             : 224 (0xE0)
    Format                         : MPEG Video
    Format version                 : Version 2
    Format profile                 : Main@Main
    Format settings                : CustomMatrix / BVOP
    Format settings, BVOP          : Yes
    Format settings, Matrix        : Custom
    Format settings, GOP           : Variable
    Duration                       : 2 min 45 s
    Bit rate mode                  : Variable
    Bit rate                       : 5 502 kb/s
    Maximum bit rate               : 8 000 kb/s
    Width                          : 720 pixels
    Height                         : 480 pixels
    Display aspect ratio           : 16:9
    Frame rate                     : 23.976 (24000/1001) FPS
    Standard                       : NTSC
    Color space                    : YUV
    Chroma subsampling             : 4:2:0
    Bit depth                      : 8 bits
    Scan type                      : Progressive
    Scan order                     : 2:3 Pulldown
    Compression mode               : Lossy
    Bits/(Pixel*Frame)             : 0.664
    Time code of first frame       : 00:00:00:00
    Time code source               : Group of pictures header
    GOP, Open/Closed               : Closed
    Stream size                    : 108 MiB (77%)
    Color primaries                : BT.601 NTSC
    Transfer characteristics       : BT.601
    Matrix coefficients            : BT.601
    
    Audio
    ID                             : 189 (0xBD)-160 (0xA0)
    Format                         : PCM
    Format settings                : Big / Signed
    Muxing mode                    : DVD-Video
    Duration                       : 2 min 45 s
    Bit rate mode                  : Constant
    Bit rate                       : 1 536 kb/s
    Channel(s)                     : 2 channels
    Sampling rate                  : 48.0 kHz
    Bit depth                      : 16 bits
    Delay relative to video        : -282 ms
    Stream size                    : 30.2 MiB (21%)
    
    Menu
    Host: Mediafire
    Hidden Content:
    You must reply before you can see the hidden data contained here.
     
    eks22 likes this.
  2. Loading...


  3. alonso181920

    alonso181920 Member

    Joined:
    Apr 16, 2020
    Messages:
    296
    Likes Received:
    15
    THANK