Hilary Duff - All About You (Bis.HD.1080i.DD5.1)-Crusha

Discussion in 'BIS HD' started by Crusha, Jun 23, 2015.

  1. Crusha

    Crusha Well-Known Member Capper V . I . P.

    Joined:
    Oct 15, 2014
    Messages:
    2,359
    Likes Received:
    2,860
    [​IMG]
    [​IMG]
    [​IMG]

    General
    ID : 1 (0x1)
    Complete name : Hilary Duff - All About You (Bis.HD.1080i.DD5.1)-Crusha.ts
    Format : MPEG-TS
    File size : 77.4 MiB
    Duration : 2mn 43s
    Overall bit rate mode : Variable
    Overall bit rate : 3 973 Kbps

    Video
    ID : 2027 (0x7EB)
    Menu ID : 802 (0x322)
    Format : AVC
    Format/Info : Advanced Video Codec
    Format profile : High@L4.0
    Format settings, CABAC : Yes
    Format settings, ReFrames : 4 frames
    Codec ID : 27
    Duration : 2mn 43s
    Bit rate : 3 389 Kbps
    Width : 1 920 pixels
    Height : 1 080 pixels
    Display aspect ratio : 16:9
    Frame rate : 29.970 fps
    Standard : Component
    Color space : YUV
    Chroma subsampling : 4:2:0
    Bit depth : 8 bits
    Scan type : MBAFF
    Scan order : Top Field First
    Bits/(Pixel*Frame) : 0.055
    Stream size : 66.0 MiB (85%)
    Color primaries : BT.709
    Transfer characteristics : BT.709
    Matrix coefficients : BT.709
    Color range : Limited

    Audio
    ID : 3027 (0xBD3)
    Menu ID : 802 (0x322)
    Format : AC-3
    Format/Info : Audio Coding 3
    Mode extension : CM (complete main)
    Format settings, Endianness : Big
    Codec ID : 6
    Duration : 2mn 43s
    Bit rate mode : Constant
    Bit rate : 384 Kbps
    Channel(s) : 6 channels
    Channel positions : Front: L C R, Side: L R, LFE
    Sampling rate : 48.0 KHz
    Bit depth : 16 bits
    Compression mode : Lossy
    Stream size : 7.48 MiB (10%)
    Language : English

    Hidden Content:
    You must either reply or click 'Like' to see the hidden information contained here.
    Password: crusha

    Cap By Me :)
     
  2. Joseph

    Joseph Active Member

    Joined:
    Dec 10, 2013
    Messages:
    753
    Likes Received:
    180
    thank you
     
  3. MaggieS

    MaggieS Well-Known Member

    Joined:
    Sep 19, 2014
    Messages:
    1,076
    Likes Received:
    56
    oh:happy:yeah:lol:thank you, man:greedy:
     
  4. Zatimi

    Zatimi Active Member

    Joined:
    Aug 27, 2014
    Messages:
    850
    Likes Received:
    201
    thanks so much
     
  5. mickdara

    mickdara Member Donor

    Joined:
    Jun 24, 2015
    Messages:
    93
    Likes Received:
    3
    Thankis for Hilary!
     
  6. Grailen

    Grailen Well-Known Member

    Joined:
    Oct 8, 2013
    Messages:
    643
    Likes Received:
    862
    thank you
     
  7. marco desolo

    marco desolo Member

    Joined:
    Dec 21, 2014
    Messages:
    62
    Likes Received:
    3
     
  8. Thassyo

    Thassyo Well-Known Member

    Joined:
    Oct 9, 2013
    Messages:
    2,828
    Likes Received:
    1,276
    THANK YOU
     
  9. music videos

    music videos Well-Known Member V . I . P.

    Joined:
    Jul 5, 2016
    Messages:
    1,565
    Likes Received:
    1,745
    tytytytyty